<?xml version="1.0" standalone="no"?>
<!DOCTYPE svg PUBLIC "-//W3C//DTD SVG 1.1//EN" "http://www.w3.org/Graphics/SVG/1.1/DTD/svg11.dtd" >
<svg xmlns="http://www.w3.org/2000/svg">
<metadata>Generated by IcoMoon</metadata>
<defs>
<font id="icomoon" horiz-adv-x="1024">
<font-face units-per-em="1024" ascent="960" descent="-64" />
<missing-glyph horiz-adv-x="1024" />
<glyph unicode="&#x20;" horiz-adv-x="512" d="" />
<glyph unicode="&#xe900;" glyph-name="Double-arrow" d="M387.361 765.682l309.059-302.243-309.059-302.244 100.616-100.042 411.384 402.286-411.384 402.286-100.616-100.043zM122.251 865.725l-100.614-100.043 309.058-302.243-309.058-302.244 100.614-100.042 411.386 402.286-411.386 402.286z" />
<glyph unicode="&#xe901;" glyph-name="mail-line-2" d="M128.004 832h768.001c11.315 0 22.167-4.495 30.17-12.497 8-8.002 12.495-18.854 12.495-30.17v-682.666c0-11.318-4.495-22.17-12.495-30.17-8.003-8.003-18.854-12.498-30.17-12.498h-768.001c-11.316 0-22.168 4.495-30.17 12.498-8.002 8-12.497 18.852-12.497 30.17v682.666c0 11.316 4.495 22.168 12.497 30.17s18.854 12.497 30.17 12.497v0zM853.338 651.18l-338.26-302.935-344.406 303.872v-502.784h682.667v501.847zM192.474 746.667l322.132-284.246 317.484 284.246h-639.616z" />
<glyph unicode="&#xe902;" glyph-name="Fb" horiz-adv-x="589" d="M567.012 960h-141.617c-158.502 0-261.446-98.816-261.446-251.904v-116.224h-141.617c-12.528 0-22.332-9.216-22.332-20.992v-168.448c0-11.776 9.804-20.992 22.332-20.992h142.162v-424.96c0-11.264 9.804-20.48 21.787-20.48h185.19c12.529 0 22.333 9.216 22.333 20.992v424.96h166.126c12.529 0 22.333 9.216 22.333 20.992v168.448c0 5.632-2.179 10.752-6.536 14.848-4.36 4.096-9.805 6.144-15.798 6.144h-166.126v97.792c0 47.104 11.983 71.168 77.345 71.168h95.319c12.526 0 22.331 9.216 22.331 20.992v156.672c0 11.264-9.805 20.992-21.788 20.992z" />
<glyph unicode="&#xe903;" glyph-name="linkedin" d="M1023.962-64.015v375.465c0 183.749-39.823 325.402-254.29 325.402-102.968 0-172.372-56.888-200.817-110.364h-2.844v93.297h-203.661v-683.799h212.193v338.486c0 89.316 17.068 175.217 127.429 175.217 108.657 0 110.364-101.829 110.364-180.905v-332.797h211.625zM17.075 619.776h212.193v-683.799h-212.193v683.799zM122.879 960c-67.697 0-122.879-55.182-122.879-122.879s55.182-124.017 122.879-124.017c67.697 0 122.879 56.319 122.879 124.017s-55.182 122.879-122.879 122.879z" />
<glyph unicode="&#xe904;" glyph-name="Pinterest" horiz-adv-x="870" d="M441.326 960c-288.38 0-441.326-179.796-441.326-376.092 0-91.036 51.955-204.262 135.433-240.108 23.934-10.243 20.432 2.276 41.447 78.518 1.751 6.259 0.584 11.95-4.67 17.638-119.088 134.28-23.351 411.369 251.603 411.369 398.126 0 323.988-537.112 69.468-537.112-65.382 0-114.419 50.068-99.241 112.087 18.68 73.966 55.457 153.623 55.457 206.538 0 134.278-205.485 114.364-205.485-63.726 0-55.191 19.849-92.173 19.849-92.173s-65.382-259.453-77.641-307.814c-21.016-82.504 2.919-215.642 4.67-227.023 1.167-6.257 8.756-8.532 12.843-2.844 6.421 8.535 86.396 119.485 108.579 199.711 8.174 29.018 41.449 147.932 41.449 147.932 22.182-38.689 85.23-71.122 152.945-71.122 201.4 0 346.757 172.401 346.757 386.335-0.584 204.262-180.383 357.885-412.137 357.885z" />
<glyph unicode="&#xe905;" glyph-name="Twitter" horiz-adv-x="1254" d="M1254.4 838.827c-46.418-20.48-96.23-34.134-148.308-40.96 53.21 31.858 93.967 82.489 113.213 142.791-49.815-29.582-104.722-50.631-163.028-62.578-46.984 50.631-114.345 81.92-187.366 81.92-142.083 0-256.993-116.053-256.993-258.276 0-20.48 1.697-40.392 6.226-59.164-213.972 10.808-403.038 113.778-530.403 270.222-22.077-38.685-35.096-83.058-35.096-130.845 0-89.314 45.851-168.961 114.345-214.47-41.322 1.137-82.079 13.084-116.043 31.857 0-0.568 0-1.708 0-2.844 0-125.724 88.872-229.832 206.047-253.724-20.944-5.688-44.153-8.532-67.928-8.532-16.416 0-32.832 1.137-48.682 4.549 33.398-102.4 127.93-177.492 240.012-179.768-87.739-68.836-198.689-110.364-318.694-110.364-20.944 0-41.323 1.137-61.701 3.412 114.345-73.956 249.635-116.052 395.113-116.052 473.231 0 731.922 393.672 731.922 735.004 0 11.379-0.566 22.188-1.132 33.565 50.947 36.409 93.967 81.92 128.497 134.258z" />
<glyph unicode="&#xe906;" glyph-name="youtube" horiz-adv-x="1382" d="M625.085 960h144.251c516.897-6.059 607.053-84.828 613.064-466.557v-90.888c-6.011-399.905-102.177-466.555-679.178-466.555h-144.251c-474.825 6.060-552.96 90.888-558.971 484.733v78.769c12.021 387.788 108.188 454.439 625.085 460.498zM577.001 626.744v-363.548l300.524 181.775-300.524 181.773z" />
<glyph unicode="&#xe907;" glyph-name="award-line" d="M725.343 309.555v-293.204c0-3.773-1.001-7.483-2.9-10.744s-4.631-5.96-7.916-7.821c-3.284-1.861-7.004-2.816-10.778-2.77-3.773 0.044-7.468 1.091-10.706 3.031l-181.036 108.628-181.033-108.628c-3.241-1.943-6.94-2.988-10.719-3.034-3.779-0.044-7.498 0.916-10.785 2.783-3.284 1.866-6.016 4.572-7.913 7.839-1.897 3.269-2.89 6.981-2.883 10.76v293.12c-55.205 44.198-95.318 104.453-114.797 172.434-19.479 67.983-17.361 140.339 6.060 207.066s66.991 124.532 124.685 165.426c57.695 40.895 126.666 62.86 197.384 62.86 70.72 0 139.692-21.965 197.386-62.86s101.263-98.7 124.685-165.426c23.421-66.726 25.539-139.082 6.060-207.066-19.479-67.981-59.592-128.236-114.796-172.434v0.041zM384.008 259.507v-130.132l128 76.8 128-76.8v130.132c-40.668-16.448-84.132-24.878-128-24.832-43.868-0.046-87.332 8.384-128 24.832v0zM512.008 320.010c67.896 0 133.010 26.97 181.020 74.98s74.98 113.124 74.98 181.020c0 67.894-26.97 133.009-74.98 181.019s-113.124 74.981-181.020 74.981c-67.894 0-133.010-26.971-181.018-74.981-48.010-48.009-74.982-113.125-74.982-181.019 0-67.896 26.972-133.010 74.982-181.020 48.008-48.010 113.124-74.98 181.018-74.98v0z" />
<glyph unicode="&#xe908;" glyph-name="artboard-line" d="M366.336 234.668h-238.336v85.332h768v-85.332h-238.336l138.368-138.368-60.332-60.332-181.033 181.036v-110.336h-85.335v110.336l-181.033-181.036-60.332 60.332 138.368 138.368zM213.333 832h597.334c11.315 0 22.167-4.495 30.17-12.497 8-8.002 12.495-18.854 12.495-30.17v-426.666h-682.666v426.666c0 11.316 4.495 22.168 12.497 30.17s18.854 12.497 30.17 12.497zM256 746.667v-298.667h512v298.667h-512z" />
<glyph unicode="&#xe909;" glyph-name="translate" d="M213.325 320.008v-85.332c-0.007-21.53 8.124-42.266 22.762-58.051s34.702-25.454 56.17-27.069l6.4-0.212h128v-85.335h-128c-45.263 0-88.672 17.981-120.678 49.987-32.006 32.008-49.987 75.418-49.987 120.681v85.332h85.334zM767.992 533.343l187.732-469.335h-91.948l-51.241 128h-174.508l-51.156-128h-91.904l187.689 469.335h85.335zM725.325 410.248l-53.204-132.905h106.324l-53.12 132.905zM341.325 874.675v-85.333h170.668v-298.666h-170.668v-128h-85.333v128h-170.666v298.666h170.666v85.333h85.333zM725.325 832.008c45.263 0 88.673-17.981 120.681-49.987 32.005-32.006 49.987-75.416 49.987-120.678v-85.335h-85.335v85.335c0 22.63-8.988 44.336-24.993 60.339-16.003 16.003-37.706 24.994-60.339 24.994h-128v85.334h128zM255.992 704.008h-85.333v-128.001h85.333v128.001zM426.657 704.008h-85.332v-128.001h85.332v128.001z" />
<glyph unicode="&#xe90a;" glyph-name="bar-chart-2-line" d="M85.325 405.332h256v-341.332h-256v341.332zM682.657 618.668h256v-554.668h-256v554.668zM383.992 832h256v-768h-256v768zM170.658 320v-170.668h85.333v170.668h-85.333zM469.325 746.667v-597.334h85.332v597.334h-85.332zM767.992 533.332v-384h85.332v384h-85.332z" />
<glyph unicode="&#xe90b;" glyph-name="Note-text-line" d="M896 618.675v-554.368c0.038-5.604-1.024-11.159-3.133-16.351-2.107-5.192-5.217-9.917-9.152-13.906-3.935-3.991-8.614-7.168-13.778-9.347-5.161-2.181-10.701-3.323-16.305-3.361h-683.264c-11.229 0-21.999 4.457-29.944 12.393s-12.413 18.701-12.424 29.932v768.682c0 22.912 19.157 42.325 42.752 42.325h469.12l256.128-256zM810.668 576.008h-213.335v213.334h-383.999v-682.666h597.334v469.332zM341.332 661.343h128v-85.335h-128v85.335zM341.332 490.675h341.335v-85.332h-341.335v85.332zM341.332 320.008h341.335v-85.332h-341.335v85.332z" />
<glyph unicode="&#xe90c;" glyph-name="file-text-line" d="M896 618.675v-554.368c0.038-5.604-1.024-11.159-3.133-16.351-2.107-5.192-5.217-9.917-9.152-13.906-3.935-3.991-8.614-7.168-13.778-9.347-5.161-2.181-10.701-3.323-16.305-3.361h-683.264c-11.229 0-21.999 4.457-29.944 12.393s-12.413 18.701-12.424 29.932v768.682c0 22.912 19.157 42.325 42.752 42.325h469.12l256.128-256zM810.668 576.008h-213.335v213.334h-383.999v-682.666h597.334v469.332zM341.332 661.343h128v-85.335h-128v85.335zM341.332 490.675h341.335v-85.332h-341.335v85.332zM341.332 320.008h341.335v-85.332h-341.335v85.332z" />
<glyph unicode="&#xe90d;" glyph-name="user-2" d="M298.657 576.008c28.291 0 55.421 11.238 75.425 31.242s31.242 47.135 31.242 75.425c0 28.29-11.238 55.421-31.242 75.425s-47.135 31.242-75.425 31.242c-28.288 0-55.42-11.238-75.424-31.242s-31.242-47.135-31.242-75.425c0-28.291 11.238-55.421 31.242-75.425s47.136-31.242 75.424-31.242zM298.657 490.675c-25.213 0-50.18 4.966-73.474 14.615s-44.461 23.793-62.289 41.62c-17.829 17.828-31.972 38.994-41.62 62.29-9.649 23.293-14.615 48.261-14.615 73.475s4.966 50.181 14.615 73.475c9.649 23.294 23.792 44.46 41.62 62.289s38.995 31.972 62.289 41.62c23.294 9.649 48.261 14.615 73.474 14.615 50.924 0 99.758-20.228 135.764-56.236 36.009-36.007 56.236-84.843 56.236-135.764s-20.227-99.758-56.236-135.764c-36.006-36.006-84.841-56.236-135.764-56.236v0zM746.657 405.343c22.633 0 44.337 8.988 60.342 24.993 16.003 16.003 24.993 37.706 24.993 60.339 0 22.63-8.991 44.337-24.993 60.339-16.005 16.003-37.709 24.993-60.342 24.993-22.63 0-44.337-8.991-60.339-24.993s-24.993-37.709-24.993-60.339c0-22.633 8.991-44.337 24.993-60.339 16.003-16.005 37.709-24.993 60.339-24.993v0zM746.657 320.008c-45.263 0-88.673 17.981-120.678 49.987-32.005 32.008-49.987 75.418-49.987 120.681s17.981 88.673 49.987 120.678c32.005 32.008 75.415 49.989 120.678 49.989 45.266 0 88.673-17.981 120.681-49.989 32.005-32.005 49.987-75.415 49.987-120.678s-17.981-88.673-49.987-120.681c-32.008-32.005-75.415-49.987-120.681-49.987zM853.325 64.008v21.335c0 28.288-11.238 55.419-31.242 75.423s-47.135 31.242-75.425 31.242c-28.288 0-55.419-11.238-75.423-31.242s-31.242-47.135-31.242-75.423v-21.335h-85.335v21.335c0 25.213 4.966 50.179 14.615 73.475 9.651 23.293 23.793 44.46 41.62 62.29 17.83 17.828 38.996 31.969 62.29 41.62 23.296 9.649 48.261 14.615 73.475 14.615 25.216 0 50.181-4.966 73.477-14.615 23.293-9.651 44.46-23.793 62.287-41.62 17.83-17.83 31.972-38.996 41.62-62.29 9.649-23.296 14.615-48.261 14.615-73.475v-21.335h-85.332zM426.657 64.008v170.668c0 33.948-13.484 66.504-37.489 90.509s-56.563 37.491-90.511 37.491c-33.946 0-66.504-13.486-90.509-37.491s-37.49-56.561-37.49-90.509v-170.668h-85.333v170.668c0 56.579 22.476 110.84 62.484 150.848 40.008 40.010 94.27 62.484 150.849 62.484 56.581 0 110.843-22.474 150.851-62.484 40.008-40.008 62.484-94.269 62.484-150.848v-170.668h-85.335z" />
<glyph unicode="&#xe90e;" glyph-name="draft-line" d="M853.332 874.675c23.552 0 42.668-19.114 42.668-42.666v-160.298l-85.332-85.335v202.966h-597.334v-682.666h597.334v117.676l85.332 85.332v-245.676c0-23.552-19.116-42.665-42.668-42.665h-682.666c-23.552 0-42.667 19.113-42.667 42.665v768.001c0 23.552 19.115 42.666 42.667 42.666h682.666zM929.196 584.2l60.329-60.329-331.86-331.863-60.416 0.087 0.084 60.244 331.863 331.86zM554.668 448.008v-85.332h-213.335v85.332h213.335zM682.668 618.675v-85.332h-341.335v85.332h341.335z" />
<glyph unicode="&#xe90f;" glyph-name="arrow-up-s-line" d="M512.005 497.999l211.2-211.2 60.332 60.332-271.532 271.532-271.53-271.532 60.33-60.332 211.2 211.2z" />
<glyph unicode="&#xe910;" glyph-name="lock-password-line" d="M768 618.657h85.332c11.318 0 22.17-4.495 30.17-12.495 8.003-8.003 12.498-18.854 12.498-30.17v-512c0-11.318-4.495-22.17-12.498-30.17-8-8.003-18.852-12.498-30.17-12.498h-682.666c-11.316 0-22.168 4.495-30.17 12.498-8.002 8-12.497 18.852-12.497 30.17v512c0 11.315 4.495 22.167 12.497 30.17 8.002 8 18.854 12.495 30.17 12.495h85.333v42.668c0 67.896 26.972 133.010 74.98 181.020 48.010 48.009 113.124 74.981 181.020 74.981s133.010-26.971 181.020-74.981c48.008-48.009 74.98-113.124 74.98-181.020v-42.668zM213.333 533.325v-426.668h597.334v426.668h-597.334zM469.332 362.657h85.335v-85.332h-85.335v85.332zM298.668 362.657h85.332v-85.332h-85.332v85.332zM640 362.657h85.332v-85.332h-85.332v85.332zM682.668 618.657v42.668c0 45.264-17.981 88.674-49.989 120.68-32.005 32.006-75.415 49.987-120.678 49.987s-88.673-17.981-120.678-49.987c-32.008-32.006-49.989-75.416-49.989-120.68v-42.668h341.335z" />
<glyph unicode="&#xe911;" glyph-name="share-fill" d="M579.238 223.096l-218.028 118.912c-20.928-20.774-47.537-34.888-76.475-40.561s-58.907-2.652-86.13 8.684c-27.223 11.336-50.48 30.477-66.841 55.009-16.36 24.535-25.091 53.363-25.091 82.852 0 29.486 8.73 58.314 25.091 82.849s39.618 43.674 66.841 55.009c27.223 11.336 57.192 14.356 86.13 8.684s55.547-19.786 76.475-40.558l218.028 118.912c-7.478 35.082-2.076 71.685 15.214 103.113 17.293 31.429 45.32 55.583 78.956 68.046s70.636 12.401 104.23-0.173c33.595-12.574 61.542-36.822 78.73-68.307 17.185-31.486 22.467-68.106 14.871-103.165-7.593-35.057-27.553-66.212-56.228-87.762-28.677-21.553-64.151-32.061-99.94-29.606-35.786 2.455-69.494 17.708-94.958 42.975l-218.028-118.912c4.349-20.508 4.349-41.702 0-62.208l218.028-118.912c25.464 25.265 59.172 40.517 94.958 42.972 35.789 2.455 71.263-8.054 99.94-29.606 28.675-21.55 48.635-52.705 56.228-87.762 7.596-35.059 2.314-71.68-14.871-103.165-17.188-31.485-45.135-55.731-78.73-68.306s-70.595-12.636-104.23-0.174c-33.636 12.462-61.663 36.618-78.956 68.045-17.29 31.429-22.692 68.032-15.214 103.117v0z" />
<glyph unicode="&#xe912;" glyph-name="reply-all-fill" d="M597.332 768v-192c235.648 0 426.668-191.020 426.668-426.668 0-11.648-0.428-23.168-1.364-34.56-62.423 118.359-184.748 200.151-326.615 205.015l-13.353 0.212h-85.335v-192l-341.332 320 341.332 320zM341.332 768v-116.78l-216.746-203.22 216.705-203.136 0.041-116.864-341.332 320 341.332 320z" />
<glyph unicode="&#xe913;" glyph-name="calendar-check-line" d="M384.041 917.325v-85.334h256v85.334h85.335v-85.334h170.665c11.318 0 22.17-4.495 30.17-12.497 8.003-8.002 12.498-18.854 12.498-30.17v-682.668c0-11.315-4.495-22.167-12.498-30.17-8-8-18.852-12.495-30.17-12.495h-767.999c-11.316 0-22.168 4.495-30.17 12.495-8.002 8.003-12.497 18.854-12.497 30.17v682.668c0 11.316 4.495 22.168 12.497 30.17s18.854 12.497 30.17 12.497h170.667v85.334h85.332zM853.376 533.325h-682.668v-384h682.668v384zM641.577 484.856l60.332-60.332-211.2-211.2-150.868 150.868 60.416 60.332 90.496-90.54 150.825 150.871zM298.708 746.658h-128v-128.001h682.668v128.001h-128v-42.666h-85.335v42.666h-256v-42.666h-85.332v42.666z" />
<glyph unicode="&#xe914;" glyph-name="user-fill-solid" d="M170.675 21.325c0 90.527 35.962 177.347 99.973 241.359 64.013 64.013 150.833 99.973 241.359 99.973s177.347-35.96 241.359-99.973c64.013-64.013 99.976-150.833 99.976-241.359h-682.668zM512.008 405.325c-141.44 0-256 114.56-256 256s114.56 256 256 256c141.44 0 256-114.56 256-256s-114.56-256-256-256z" />
<glyph unicode="&#xe915;" glyph-name="award-fill-solid" d="M725.343 309.555v-293.204c0-3.773-1.001-7.483-2.9-10.744s-4.631-5.96-7.916-7.821c-3.284-1.861-7.004-2.816-10.778-2.77-3.773 0.044-7.468 1.091-10.706 3.031l-181.036 108.628-181.033-108.628c-3.241-1.943-6.94-2.988-10.719-3.034-3.779-0.044-7.498 0.916-10.785 2.783-3.284 1.866-6.016 4.572-7.913 7.839-1.897 3.269-2.89 6.981-2.883 10.76v293.12c-55.205 44.198-95.318 104.453-114.797 172.434-19.479 67.983-17.361 140.339 6.060 207.066s66.991 124.532 124.685 165.426c57.695 40.895 126.666 62.86 197.384 62.86 70.72 0 139.692-21.965 197.386-62.86s101.263-98.7 124.685-165.426c23.421-66.726 25.539-139.082 6.060-207.066-19.479-67.981-59.592-128.236-114.796-172.434v0.041zM512.008 320.010c67.896 0 133.010 26.97 181.020 74.98s74.98 113.124 74.98 181.020c0 67.894-26.97 133.009-74.98 181.019s-113.124 74.981-181.020 74.981c-67.894 0-133.010-26.971-181.018-74.981-48.010-48.009-74.982-113.125-74.982-181.019 0-67.896 26.972-133.010 74.982-181.020 48.008-48.010 113.124-74.98 181.018-74.98v0zM512.008 405.343c-45.263 0-88.673 17.981-120.678 49.987-32.008 32.008-49.987 75.418-49.987 120.681s17.979 88.673 49.987 120.678c32.005 32.007 75.415 49.987 120.678 49.987s88.673-17.981 120.681-49.987c32.005-32.005 49.987-75.415 49.987-120.678s-17.981-88.673-49.987-120.681c-32.008-32.005-75.418-49.987-120.681-49.987z" />
<glyph unicode="&#xe916;" glyph-name="discuss-line" d="M597.292 0.008l-119.468 149.335h-221.866c-11.316 0-22.168 4.495-30.17 12.495-8.002 8.003-12.497 18.854-12.497 30.17v464.94c0 11.315 4.495 22.167 12.497 30.17s18.854 12.498 30.17 12.498h682.666c11.318 0 22.17-4.495 30.17-12.498 8.003-8.003 12.498-18.854 12.498-30.17v-464.94c0-11.315-4.495-22.167-12.498-30.17-8-8-18.852-12.495-30.17-12.495h-221.865l-119.468-149.335zM675.756 234.675h220.204v379.604h-597.335v-379.604h220.204l78.464-98.048 78.464 98.048zM85.292 874.675h725.332v-85.333h-682.666v-469.334h-85.333v512.001c0 11.316 4.495 22.168 12.497 30.17s18.854 12.497 30.17 12.497v0z" />
<glyph unicode="&#xe917;" glyph-name="user-2-line_tie" d="M170.675 21.325c0 90.527 35.962 177.347 99.973 241.359 64.013 64.013 150.833 99.973 241.359 99.973s177.347-35.96 241.359-99.973c64.013-64.013 99.976-150.833 99.976-241.359h-682.668zM554.675 273.784v-167.127h198.784c-15.252 43.034-41.72 81.213-76.667 110.595s-77.105 48.899-122.117 56.532v0zM469.343 106.657v167.127c-45.015-7.634-87.173-27.151-122.12-56.532s-61.414-67.561-76.664-110.595h198.784zM512.008 405.325c-141.44 0-256 114.56-256 256s114.56 256 256 256c141.44 0 256-114.56 256-256s-114.56-256-256-256zM512.008 490.657c94.295 0 170.668 76.375 170.668 170.668s-76.372 170.667-170.668 170.667c-94.292 0-170.665-76.373-170.665-170.667 0-94.292 76.372-170.668 170.665-170.668z" />
<glyph unicode="&#xe918;" glyph-name="pentool" d="M903.124 241.789l-184.891-184.888c-31.419-31.419-82.358-31.419-113.777 0-15.708 15.711-15.708 41.18 0 56.888l241.779 241.779c15.708 15.708 41.178 15.708 56.888 0 31.419-31.419 31.419-82.36 0-113.779zM384.543 500.677c0.883 7.565-1.011 15.396-6.397 20.782l-250.374 250.375c-10.843 10.843-28.558 5.37-26.389-9.81l49.646-347.519c12.227-85.586 66.825-159.219 145.169-195.779l167.347-78.098c16.259-7.585 35.525-4.191 48.212 8.494l299.069 299.072c12.687 12.685 16.082 31.954 8.494 48.212l-78.095 167.347c-36.562 78.343-110.193 132.942-195.779 145.168l-347.521 49.646c-15.185 2.169-20.658-15.55-9.812-26.397l250.369-250.367c5.386-5.386 13.217-7.281 20.785-6.397 3.29 0.387 6.636 0.584 10.028 0.584 47.127 0 85.332-38.205 85.332-85.332 0-47.13-38.205-85.335-85.332-85.335-47.13 0-85.335 38.205-85.335 85.335 0 3.389 0.2 6.733 0.584 10.020z" />
<glyph unicode="&#xe919;" glyph-name="book-mark-fill-solid" d="M853.332 21.343h-576c-39.605 0-77.588 15.731-105.594 43.738s-43.739 65.989-43.739 105.595v576c0 33.948 13.486 66.505 37.49 90.51s56.562 37.49 90.51 37.49h597.332c11.318 0 22.17-4.495 30.17-12.497 8.003-8.002 12.498-18.854 12.498-30.17v-768.001c0-11.315-4.495-22.167-12.498-30.17-8-8-18.852-12.495-30.17-12.495zM810.668 106.675v128h-533.335c-16.973 0-33.252-6.743-45.254-18.744-12.002-12.004-18.745-28.283-18.745-45.256 0-16.975 6.743-33.252 18.745-45.256 12.002-12.001 28.281-18.744 45.254-18.744h533.335zM426.668 789.342v-341.334l149.332 85.335 149.332-85.335v341.334h-298.665z" />
<glyph unicode="&#xe91a;" glyph-name="arrow-right-s-line-right" d="M561.999 447.995l-211.2 211.2 60.332 60.33 271.532-271.53-271.532-271.532-60.332 60.332 211.2 211.2z" />
<glyph unicode="&#xe91b;" glyph-name="book-line" d="M128 170.675v576c0 33.948 13.486 66.505 37.49 90.51s56.562 37.49 90.51 37.49h597.332c11.318 0 22.17-4.495 30.17-12.497 8.003-8.002 12.498-18.854 12.498-30.17v-768.001c0-11.315-4.495-22.167-12.498-30.17-8-8-18.852-12.495-30.17-12.495h-576c-39.605 0-77.588 15.731-105.594 43.738s-43.739 65.989-43.739 105.595v0zM810.668 106.675v128h-533.335c-16.973 0-33.252-6.743-45.254-18.744-12.002-12.004-18.745-28.283-18.745-45.256 0-16.975 6.743-33.252 18.745-45.256 12.002-12.001 28.281-18.744 45.254-18.744h533.335zM213.333 305.631c19.997 9.495 41.863 14.408 63.999 14.377h533.335v469.334h-554.668c-11.316 0-22.168-4.495-30.17-12.497s-12.497-18.854-12.497-30.17v-441.044z" />
<glyph unicode="&#xe91c;" glyph-name="shopping-basket-2-line" d="M655.608 813.3l137.001-237.313h146.048v-85.332h-49.792l-32.297-387.54c-0.888-10.662-5.75-20.603-13.622-27.848-7.869-7.247-18.176-11.272-28.874-11.279h-604.161c-10.699 0.008-21.005 4.032-28.876 11.279-7.871 7.245-12.732 17.185-13.62 27.848l-32.341 387.54h-49.749v85.332h146.005l137.046 237.313 73.897-42.667-112.384-194.646h364.16l-112.34 194.646 73.9 42.667zM803.233 490.655h-582.527l28.459-341.332h525.611l28.457 341.332zM554.657 405.322v-170.668h-85.332v170.668h85.332zM383.992 405.322v-170.668h-85.335v170.668h85.335zM725.325 405.322v-170.668h-85.332v170.668h85.332z" />
<glyph unicode="&#xe91d;" glyph-name="trophy-line" d="M554.675 237.312v-87.98h213.332v-85.332h-512v85.332h213.335v87.98c-82.488 10.401-158.344 50.55-213.335 112.906-54.989 62.359-85.331 142.641-85.333 225.782v256h682.668v-256c-0.003-83.141-30.346-163.423-85.335-225.782-54.989-62.356-130.844-102.505-213.332-112.906v0zM256.008 746.667v-170.667c0-67.896 26.972-133.010 74.982-181.020 48.008-48.008 113.124-74.98 181.018-74.98 67.896 0 133.010 26.972 181.020 74.98 48.010 48.010 74.98 113.124 74.98 181.020v170.667h-512zM42.675 746.667h85.334v-170.667h-85.334v170.667zM896.008 746.667h85.335v-170.667h-85.335v170.667z" />
<glyph unicode="&#xe91e;" glyph-name="checkbox-circle-fill-solid" d="M511.992 21.343c-235.648 0-426.667 191.017-426.667 426.665s191.019 426.667 426.667 426.667c235.648 0 426.665-191.019 426.665-426.667s-191.017-426.665-426.665-426.665zM469.453 277.343l301.652 301.696-60.329 60.329-241.324-241.364-120.704 120.704-60.332-60.332 181.036-181.033z" />
<glyph unicode="&#xe91f;" glyph-name="checkbox-circle-fill" d="M511.992 21.343c-235.648 0-426.667 191.017-426.667 426.665s191.019 426.667 426.667 426.667c235.648 0 426.665-191.019 426.665-426.667s-191.017-426.665-426.665-426.665zM469.453 277.343l301.652 301.696-60.329 60.329-241.324-241.364-120.704 120.704-60.332-60.332 181.036-181.033z" />
<glyph unicode="&#xe920;" glyph-name="eye-line" d="M512.010 832c230.060 0 421.463-165.548 461.612-384-40.108-218.452-231.552-384-461.612-384-230.057 0-421.461 165.548-461.61 384 40.107 218.452 231.553 384 461.61 384zM512.010 149.332c87.017 0.020 171.451 29.576 239.483 83.835 68.029 54.257 115.628 129.999 135.004 214.833-19.448 84.767-67.077 160.428-135.099 214.612-68.024 54.185-152.42 83.69-239.388 83.69s-171.361-29.505-239.386-83.69c-68.025-54.185-115.653-129.846-135.099-214.612 19.375-84.833 66.973-160.576 135.005-214.833 68.029-54.259 152.463-83.814 239.48-83.835v0zM512.010 256c-50.921 0-99.758 20.229-135.764 56.236s-56.236 84.844-56.236 135.764c0 50.921 20.229 99.758 56.236 135.764s84.844 56.236 135.764 56.236c50.921 0 99.758-20.229 135.764-56.236s56.236-84.844 56.236-135.764c0-50.921-20.229-99.758-56.236-135.764s-84.844-56.236-135.764-56.236zM512.010 341.332c28.291 0 55.421 11.238 75.425 31.242s31.242 47.135 31.242 75.425c0 28.291-11.238 55.421-31.242 75.425s-47.135 31.242-75.425 31.242c-28.291 0-55.421-11.238-75.425-31.242s-31.24-47.135-31.24-75.425c0-28.291 11.236-55.421 31.24-75.425s47.135-31.242 75.425-31.242z" />
<glyph unicode="&#xe921;" glyph-name="call" d="M891.822 394.749c-11.269 0-23.053 3.597-34.324 6.167-22.807 5.115-45.23 11.809-67.113 20.040-23.767 8.673-49.892 8.223-73.347-1.265-23.457-9.487-42.586-27.338-53.706-50.122l-11.272-23.636c-49.756 28.303-95.721 62.838-136.788 102.771-39.813 41.193-74.245 87.299-102.461 137.203l23.565 10.79c22.715 11.156 40.515 30.344 49.971 53.87 9.459 23.526 9.907 49.731 1.26 73.569-8.136 22.146-14.81 44.805-19.978 67.83-2.563 11.305-4.611 23.124-6.149 34.429-6.221 36.196-25.121 68.974-53.299 92.432s-63.78 36.054-100.396 35.52h-154.206c-21.658 0.028-43.078-4.535-62.855-13.39s-37.465-21.804-51.903-37.996c-14.738-16.632-25.712-36.266-32.168-57.555s-8.24-43.727-5.231-65.773c27.849-213.879 125.272-412.563 277.161-565.252 152.228-152.348 350.316-250.066 563.546-278.001 6.651-0.509 13.33-0.509 19.981 0 37.78-0.054 74.255 13.847 102.464 39.055 16.143 14.482 29.051 32.223 37.88 52.060 8.829 19.835 13.379 41.321 13.35 63.045v154.158c-0.276 35.507-12.764 69.829-35.354 97.167s-53.893 46.019-88.627 52.882zM916.925 86.431c-0.015-7.171-1.528-14.259-4.442-20.808-2.911-6.548-7.158-12.413-12.465-17.219-5.614-5.13-12.296-8.945-19.561-11.167-7.268-2.222-14.935-2.796-22.449-1.679-191.181 25.044-368.852 112.433-505.654 248.709-136.917 137.334-224.802 316.163-250.009 508.727-1.113 7.537-0.541 15.227 1.674 22.515s6.018 13.99 11.134 19.622c4.848 5.388 10.778 9.684 17.401 12.607s13.787 4.405 21.023 4.35h153.694c11.843 0.29 23.421-3.545 32.76-10.853 9.341-7.308 15.869-17.637 18.473-29.229 0-13.874 4.611-28.263 7.683-42.137 5.921-26.919 13.798-53.368 23.567-79.136l-71.724-33.915c-12.329-5.676-21.908-16.023-26.642-28.774-5.123-12.511-5.123-26.545 0-39.055 73.733-158.41 200.686-285.75 358.62-359.706 12.475-5.138 26.465-5.138 38.938 0 12.713 4.746 23.030 14.356 28.69 26.721l32.274 71.941c26.432-9.667 53.473-17.564 80.947-23.636 13.32-3.085 27.663-5.652 41.498-7.708 11.556-2.611 21.855-9.157 29.14-18.527s11.108-20.982 10.819-32.86l4.611-158.784zM614.661 960c-11.784 0-24.079 0-35.863 0-13.586-1.158-26.158-7.683-34.949-18.139s-13.082-23.987-11.927-37.615c1.155-13.629 7.66-26.239 18.084-35.056s23.916-13.121 37.501-11.962h27.154c81.523 0 159.711-32.483 217.357-90.304s90.033-136.244 90.033-218.015c0-9.249 0-17.984 0-27.233-1.137-13.558 3.133-27.011 11.873-37.414 8.737-10.404 21.235-16.906 34.747-18.084h4.099c12.826-0.051 25.203 4.723 34.688 13.381s15.388 20.57 16.543 33.38c0 11.82 0 24.154 0 35.971 0 108.941-43.11 213.425-119.862 290.505s-180.867 120.451-289.477 120.588v0zM717.123 548.908c0-13.627 5.399-26.698 15.007-36.334 9.608-9.638 22.638-15.050 36.227-15.050 13.586 0 26.619 5.412 36.227 15.050 9.608 9.636 15.004 22.707 15.004 36.334 0 54.515-21.591 106.796-60.022 145.344s-90.555 60.203-144.904 60.203c-13.588 0-26.619-5.414-36.227-15.051s-15.004-22.707-15.004-36.335c0-13.629 5.396-26.698 15.004-36.337 9.608-9.636 22.638-15.050 36.227-15.050 27.174 0 53.235-10.829 72.453-30.1 19.215-19.274 30.008-45.414 30.008-72.673z" />
<glyph unicode="&#xe922;" glyph-name="user-fill" d="M170.675 21.325c0 90.527 35.962 177.347 99.973 241.359 64.013 64.013 150.833 99.973 241.359 99.973s177.347-35.96 241.359-99.973c64.013-64.013 99.976-150.833 99.976-241.359h-682.668zM512.008 405.325c-141.44 0-256 114.56-256 256s114.56 256 256 256c141.44 0 256-114.56 256-256s-114.56-256-256-256z" />
<glyph unicode="&#xe923;" glyph-name="award-fill" d="M725.343 309.555v-293.204c0-3.773-1.001-7.483-2.9-10.744s-4.631-5.96-7.916-7.821c-3.284-1.861-7.004-2.816-10.778-2.77-3.773 0.044-7.468 1.091-10.706 3.031l-181.036 108.628-181.033-108.628c-3.241-1.943-6.94-2.988-10.719-3.034-3.779-0.044-7.498 0.916-10.785 2.783-3.284 1.866-6.016 4.572-7.913 7.839-1.897 3.269-2.89 6.981-2.883 10.76v293.12c-55.205 44.198-95.318 104.453-114.797 172.434-19.479 67.983-17.361 140.339 6.060 207.066s66.991 124.532 124.685 165.426c57.695 40.895 126.666 62.86 197.384 62.86 70.72 0 139.692-21.965 197.386-62.86s101.263-98.7 124.685-165.426c23.421-66.726 25.539-139.082 6.060-207.066-19.479-67.981-59.592-128.236-114.796-172.434v0.041zM512.008 320.010c67.896 0 133.010 26.97 181.020 74.98s74.98 113.124 74.98 181.020c0 67.894-26.97 133.009-74.98 181.019s-113.124 74.981-181.020 74.981c-67.894 0-133.010-26.971-181.018-74.981-48.010-48.009-74.982-113.125-74.982-181.019 0-67.896 26.972-133.010 74.982-181.020 48.008-48.010 113.124-74.98 181.018-74.98v0zM512.008 405.343c-45.263 0-88.673 17.981-120.678 49.987-32.008 32.008-49.987 75.418-49.987 120.681s17.979 88.673 49.987 120.678c32.005 32.007 75.415 49.987 120.678 49.987s88.673-17.981 120.681-49.987c32.005-32.005 49.987-75.415 49.987-120.678s-17.981-88.673-49.987-120.681c-32.008-32.005-75.418-49.987-120.681-49.987z" />
<glyph unicode="&#xe924;" glyph-name="flag-fill" d="M128 832h400.3c7.921-0.004 15.685-2.214 22.42-6.381 6.738-4.167 12.18-10.128 15.724-17.214l30.889-61.738h256c11.318 0 22.17-4.495 30.17-12.497 8.003-8.002 12.498-18.854 12.498-30.17v-469.332c0-11.318-4.495-22.17-12.498-30.17-8-8.003-18.852-12.498-30.17-12.498h-272.297c-7.923 0.005-15.688 2.214-22.423 6.382-6.738 4.165-12.18 10.127-15.721 17.213l-30.892 61.737h-298.667v-256h-85.333v810.668z" />
<glyph unicode="&#xe925;" glyph-name="video-fill" d="M682.675 789.325c11.315 0 22.167-4.495 30.17-12.497s12.498-18.854 12.498-30.17v-179.201l222.42 155.734c3.197 2.242 6.95 3.563 10.847 3.819 3.899 0.256 7.79-0.563 11.254-2.368 3.466-1.805 6.367-4.525 8.392-7.866 2.022-3.341 3.090-7.173 3.087-11.078v-515.414c0.003-3.907-1.065-7.736-3.087-11.077-2.025-3.341-4.925-6.062-8.392-7.867-3.464-1.805-7.355-2.624-11.254-2.368-3.896 0.256-7.649 1.577-10.847 3.82l-222.42 155.732v-179.2c0-11.315-4.495-22.167-12.498-30.17s-18.854-12.498-30.17-12.498h-597.334c-11.316 0-22.168 4.495-30.17 12.498s-12.497 18.854-12.497 30.17v597.334c0 11.316 4.495 22.168 12.497 30.17s18.854 12.497 30.17 12.497h597.334zM315.743 583.288c-3.935 0-7.749-1.359-10.798-3.845-3.046-2.488-5.14-5.955-5.929-9.81l-0.34-3.369v-236.46c0-2.765 0.671-5.486 1.956-7.933 1.283-2.447 3.144-4.547 5.417-6.116 2.276-1.569 4.897-2.563 7.642-2.895s5.527 0.005 8.11 0.988l3.116 1.536 185.812 118.272c2.168 1.388 3.996 3.246 5.343 5.437 1.347 2.194 2.181 4.664 2.44 7.224s-0.064 5.146-0.947 7.565c-0.881 2.417-2.299 4.605-4.147 6.397l-2.688 2.132-185.812 118.272c-2.752 1.708-5.934 2.596-9.172 2.56v0.044z" />
<glyph unicode="&#xe926;" glyph-name="Solid" d="M903.124 241.789l-184.891-184.888c-31.419-31.419-82.358-31.419-113.777 0-15.708 15.711-15.708 41.18 0 56.888l241.779 241.779c15.708 15.708 41.178 15.708 56.888 0 31.419-31.419 31.419-82.36 0-113.779zM384.543 500.677c0.883 7.565-1.011 15.396-6.397 20.782l-250.374 250.375c-10.843 10.843-28.558 5.37-26.389-9.81l49.646-347.519c12.227-85.586 66.825-159.219 145.169-195.779l167.347-78.098c16.259-7.585 35.525-4.191 48.212 8.494l299.069 299.072c12.687 12.685 16.082 31.954 8.494 48.212l-78.095 167.347c-36.562 78.343-110.193 132.942-195.779 145.168l-347.521 49.646c-15.185 2.169-20.658-15.55-9.812-26.397l250.369-250.367c5.386-5.386 13.217-7.281 20.785-6.397 3.29 0.387 6.636 0.584 10.028 0.584 47.127 0 85.332-38.205 85.332-85.332 0-47.13-38.205-85.335-85.332-85.335-47.13 0-85.335 38.205-85.335 85.335 0 3.389 0.2 6.733 0.584 10.020z" />
<glyph unicode="&#xe927;" glyph-name="book-mark-fill" d="M853.332 21.343h-576c-39.605 0-77.588 15.731-105.594 43.738s-43.739 65.989-43.739 105.595v576c0 33.948 13.486 66.505 37.49 90.51s56.562 37.49 90.51 37.49h597.332c11.318 0 22.17-4.495 30.17-12.497 8.003-8.002 12.498-18.854 12.498-30.17v-768.001c0-11.315-4.495-22.167-12.498-30.17-8-8-18.852-12.495-30.17-12.495zM810.668 106.675v128h-533.335c-16.973 0-33.252-6.743-45.254-18.744-12.002-12.004-18.745-28.283-18.745-45.256 0-16.975 6.743-33.252 18.745-45.256 12.002-12.001 28.281-18.744 45.254-18.744h533.335zM426.668 789.342v-341.334l149.332 85.335 149.332-85.335v341.334h-298.665z" />
<glyph unicode="&#xe928;" glyph-name="arrow-up-s-fill" d="M512 618.675l256-256h-512l256 256z" />
<glyph unicode="&#xe929;" glyph-name="arrow-down-s-fill" d="M512 277.325l-256 256h512l-256-256z" />
<glyph unicode="&#xe92a;" glyph-name="close-circle-line" d="M511.992 21.343c-235.648 0-426.667 191.017-426.667 426.665s191.019 426.667 426.667 426.667c235.648 0 426.665-191.019 426.665-426.667s-191.017-426.665-426.665-426.665zM511.992 106.675c90.527 0 177.347 35.96 241.359 99.973s99.973 150.833 99.973 241.359c0 90.527-35.96 177.347-99.973 241.359s-150.833 99.975-241.359 99.975c-90.527 0-177.347-35.962-241.359-99.975s-99.975-150.833-99.975-241.359c0-90.527 35.962-177.347 99.975-241.359s150.833-99.973 241.359-99.973v0zM511.992 508.339l120.66 120.704 60.372-60.372-120.704-120.663 120.704-120.66-60.372-60.372-120.66 120.704-120.663-120.704-60.372 60.372 120.704 120.66-120.704 120.663 60.372 60.372 120.663-120.704z" />
<glyph unicode="&#xe92b;" glyph-name="coupon-3-line" d="M85.325 789.333c0 11.316 4.495 22.168 12.497 30.17s18.854 12.497 30.17 12.497h768.001c11.315 0 22.167-4.495 30.17-12.497 8-8.002 12.495-18.854 12.495-30.17v-234.666c-28.288 0-55.419-11.238-75.423-31.242s-31.242-47.135-31.242-75.425c0-28.291 11.238-55.421 31.242-75.425s47.135-31.242 75.423-31.242v-234.665c0-11.318-4.495-22.17-12.495-30.17-8.003-8.003-18.854-12.498-30.17-12.498h-768.001c-11.316 0-22.168 4.495-30.17 12.498-8.002 8-12.497 18.852-12.497 30.17v682.666zM344.952 149.332c4.398 12.503 12.567 23.329 23.38 30.989 10.816 7.66 23.739 11.773 36.992 11.773s26.179-4.114 36.992-11.773c10.813-7.66 18.985-18.486 23.38-30.989h387.628v126.636c-32.051 15.885-59.028 40.407-77.888 70.804-18.86 30.395-28.854 65.457-28.854 101.228s9.994 70.833 28.854 101.228c18.86 30.397 45.837 54.92 77.888 70.804v126.635h-387.628c-4.396-12.501-12.567-23.329-23.38-30.989s-23.739-11.773-36.992-11.773c-13.253 0-26.176 4.113-36.992 11.773-10.813 7.66-18.982 18.487-23.38 30.989h-174.294v-597.334h174.294zM405.325 490.668c-16.973 0-33.252 6.743-45.256 18.744-12.001 12.001-18.744 28.28-18.744 45.256 0 16.973 6.743 33.252 18.744 45.253 12.004 12.004 28.283 18.747 45.256 18.747s33.252-6.743 45.256-18.747c12.001-12.001 18.744-28.28 18.744-45.253 0-16.975-6.743-33.254-18.744-45.256-12.004-12.001-28.283-18.744-45.256-18.744zM405.325 277.332c-16.973 0-33.252 6.743-45.256 18.747-12.001 12.001-18.744 28.28-18.744 45.253 0 16.975 6.743 33.254 18.744 45.256 12.004 12.001 28.283 18.744 45.256 18.744s33.252-6.743 45.256-18.744c12.001-12.001 18.744-28.28 18.744-45.256 0-16.973-6.743-33.252-18.744-45.253-12.004-12.004-28.283-18.747-45.256-18.747z" />
<glyph unicode="&#xe92c;" glyph-name="arrow-right-s-line" horiz-adv-x="1050" d="M585.638 447.995l-211.2 211.2 60.329 60.33 271.532-271.53-271.532-271.532-60.329 60.332 211.2 211.2z" />
<glyph unicode="&#xe92d;" glyph-name="zoom-in-line" horiz-adv-x="1050" d="M792.94 251.016l182.74-182.697-60.372-60.375-182.7 182.743c-67.978-54.495-152.532-84.137-239.657-84.012-211.968 0-384.001 172.032-384.001 384s172.033 384 384.001 384c211.968 0 384-172.032 384-384 0.123-87.124-29.517-171.679-84.012-239.66zM707.351 282.675c54.147 55.685 84.388 130.327 84.265 208 0 165.036-133.673 298.666-298.665 298.666-165.036 0-298.668-133.631-298.668-298.666 0-164.992 133.632-298.668 298.668-298.668 77.67-0.123 152.315 30.118 208 84.268l6.4 6.4zM450.284 533.343v128h85.332v-128h128v-85.335h-128v-128h-85.332v128h-128v85.335h128z" />
<glyph unicode="&#xe92e;" glyph-name="checkbox-circle-line" horiz-adv-x="1050" d="M535.616 21.343c-235.648 0-426.666 191.017-426.666 426.665s191.018 426.667 426.666 426.667c235.648 0 426.668-191.019 426.668-426.667s-191.020-426.665-426.668-426.665zM535.616 106.675c90.527 0 177.347 35.96 241.359 99.973s99.976 150.833 99.976 241.359c0 90.527-35.963 177.347-99.976 241.359s-150.833 99.975-241.359 99.975c-90.527 0-177.347-35.962-241.359-99.975s-99.973-150.833-99.973-241.359 35.962-177.347 99.973-241.359c64.013-64.013 150.833-99.973 241.359-99.973zM493.079 277.343l-181.036 181.033 60.332 60.332 120.704-120.704 241.321 241.364 60.375-60.329-301.696-301.696z" />
<glyph unicode="&#xe92f;" glyph-name="menu-2-line" horiz-adv-x="1050" d="M151.625 789.325h768.001v-85.333h-768.001v85.333zM151.625 490.657h512.001v-85.332h-512.001v85.332zM151.625 191.992h768.001v-85.335h-768.001v85.335z" />
<glyph unicode="&#xe930;" glyph-name="Settings" horiz-adv-x="1050" d="M583.232-64h-95.624c-32.351 0-59.584 24.166-63.475 56.32l-10.237 80.077c-20.27 6.554-39.928 14.746-58.56 24.371l-63.68-49.562c-25.8-20.070-62.248-17.613-84.771 5.325l-67.161 67.174c-22.933 22.323-25.185 58.573-5.119 84.378l49.552 63.693c-9.624 18.637-17.609 38.298-24.366 58.573l-80.266 10.24c-31.738 4.096-55.899 31.334-55.899 63.693v95.642c0 32.358 24.161 59.597 56.309 63.488l80.061 10.24c6.552 20.275 14.743 39.936 24.366 58.573l-49.552 63.488c-20.066 25.805-17.609 62.259 5.324 84.787l67.161 67.174c22.319 22.938 58.562 25.19 84.362 5.12l63.68-49.562c18.632 9.421 38.29 17.613 58.56 24.371l10.237 80.282c4.096 31.949 31.329 56.115 63.68 56.115h95.624c32.351 0 59.584-24.166 63.475-56.32l10.237-80.077c20.475-6.554 39.928-14.746 58.56-24.371l63.68 49.562c25.8 20.070 62.249 17.613 84.772-5.325l67.162-67.174c22.932-22.323 25.185-58.573 5.117-84.378l-49.551-63.693c9.623-18.637 17.61-38.298 24.366-58.573l80.266-10.24c31.941-3.891 56.105-31.13 56.105-63.488v-95.642c0-32.358-24.164-59.597-56.31-63.488l-80.061-10.24c-6.551-20.275-14.743-39.936-24.366-58.573l49.551-63.693c20.068-25.805 17.61-62.259-5.322-84.787l-67.162-67.174c-22.318-22.938-58.563-25.19-84.362-5.12l-63.68 49.562c-18.632-9.626-38.29-17.613-58.56-24.371l-10.237-80.282c-4.301-31.949-31.534-56.115-63.885-56.115zM353.288 143.462c3.479 0 7.165-0.819 10.442-2.662 23.547-13.107 48.937-23.757 75.761-31.334 8.189-2.253 14.129-9.421 15.357-17.818l11.876-93.798c1.229-10.65 10.442-18.842 21.089-18.842h95.624c10.442 0 19.86 8.192 21.089 18.637l12.081 94.003c1.024 8.397 7.168 15.36 15.357 17.818 26.619 7.782 52.214 18.227 75.761 31.334 7.37 4.096 16.791 3.482 23.547-1.843l74.737-57.958c8.602-6.554 20.682-6.144 27.848 1.434l67.571 67.584c7.78 7.578 8.394 19.456 1.638 28.262l-57.948 74.752c-5.322 6.758-5.937 15.974-1.843 23.552 13.105 23.552 23.754 48.947 31.329 75.776 2.253 8.192 9.418 14.131 17.815 15.36l93.778 11.878c10.647 1.229 19.044 10.65 19.044 21.094v95.642c0 10.445-8.192 19.866-18.634 21.094l-93.983 12.083c-9.011 0.41-15.972 6.349-18.429 14.541-7.78 26.624-18.225 52.224-31.329 75.776-4.093 7.373-3.479 16.794 1.843 23.552l57.948 74.752c6.756 8.602 6.141 20.685-1.434 27.853l-67.571 67.584c-7.37 7.782-19.451 8.397-28.052 1.638l-74.737-57.958c-6.756-5.325-15.969-5.939-23.547-1.843-23.342 13.107-48.937 23.757-75.761 31.334-8.189 2.253-14.129 9.421-15.357 17.818l-11.876 93.798c-1.229 10.854-10.647 19.046-21.089 19.046h-95.624c-10.442 0-19.86-8.192-21.089-18.637l-12.081-94.003c-0.819-8.602-6.758-15.565-14.948-18.022-26.824-7.578-52.214-18.227-75.761-31.334-7.37-4.301-16.791-3.482-23.547 1.843l-74.737 57.958c-8.602 6.758-20.682 6.144-27.848-1.434l-67.57-67.584c-7.781-7.578-8.395-19.456-1.638-28.262l57.947-74.752c5.324-6.758 5.938-15.974 1.843-23.552-13.104-23.552-23.752-48.947-31.328-75.776-2.252-7.987-9.419-13.926-17.814-14.95l-93.78-11.878c-10.648-1.229-18.838-10.445-18.838-21.094v-95.642c0-10.445 8.19-19.866 18.633-21.094l93.985-12.083c8.395-1.024 15.357-6.963 17.814-15.155 7.781-26.624 18.224-52.224 31.328-75.776 4.095-7.373 3.481-16.794-1.843-23.552l-57.947-74.752c-6.757-8.602-6.143-20.685 1.433-27.853l67.57-67.584c7.371-7.782 19.451-8.397 28.258-1.638l74.737 57.958c3.684 3.072 8.394 4.71 12.9 4.71zM535.508 234.596c-117.532 0-213.358 95.642-213.358 213.402s95.826 213.402 213.358 213.402c117.532 0 213.361-95.846 213.361-213.402s-95.828-213.402-213.361-213.402zM535.508 618.596c-94.188 0-170.563-76.595-170.563-170.598s76.58-170.598 170.563-170.598c93.985 0 170.565 76.595 170.565 170.598s-76.375 170.598-170.565 170.598z" />
<glyph unicode="&#xe931;" glyph-name="Lock" horiz-adv-x="794" d="M725.391 546.099h0.817v108.749c0 174.080-140.255 305.152-326.103 305.152s-326.309-131.072-326.309-305.152v-108.954h0.818c-41.709-62.259-66.039-137.216-66.039-217.702 0-216.269 175.626-392.192 391.53-392.192s391.529 175.923 391.529 392.192c0 80.486-24.33 155.443-66.243 217.907zM117.345 654.848c0 151.552 118.788 261.53 282.76 261.53 163.768 0 282.76-109.978 282.76-261.53v-55.706c-71.355 74.547-171.743 121.242-282.76 121.242-111.020 0-211.406-46.49-282.76-121.242v55.706zM400.105-20.378c-191.983 0-347.981 156.467-347.981 348.57s155.998 348.57 347.981 348.57c191.982 0 347.981-156.467 347.981-348.57 0-192.307-155.999-348.57-347.981-348.57zM400.12 524.175c-59.907 0-108.769-48.947-108.769-108.954 0-33.997 16.356-66.355 43.548-86.63v-87.654c0-36.045 29.235-65.331 65.221-65.331 35.983 0 65.221 29.286 65.221 65.331v87.654c27.192 20.48 43.548 52.634 43.548 86.63 0 60.211-48.865 108.954-108.769 108.954zM432.627 359.107c-6.746-3.891-10.836-11.059-10.836-18.842v-99.328c0-12.083-9.812-21.709-21.67-21.709-12.063 0-21.673 9.83-21.673 21.709v99.328c0 7.782-4.088 14.95-10.836 18.842-20.444 11.878-32.712 32.973-32.712 56.32 0 36.045 29.235 65.331 65.221 65.331 35.983 0 65.221-29.286 65.221-65.331 0-23.347-12.268-44.442-32.714-56.32z" />
<glyph unicode="&#xe932;" glyph-name="Browser" horiz-adv-x="1050" d="M115.276 746.598c58.778 0 106.701 47.923 106.701 106.701s-47.923 106.701-106.701 106.701c-58.778 0-106.701-47.923-106.701-106.701s47.923-106.701 106.701-106.701zM115.276 917.402c35.226 0 64.102-28.672 64.102-63.898s-28.672-64.102-64.102-64.102c-35.226 0-63.898 28.672-63.898 64.102-0.205 35.021 28.672 63.898 63.898 63.898zM115.276 149.399c-58.778 0-106.701-47.923-106.701-106.701s47.923-106.701 106.701-106.701c58.778 0 106.701 47.923 106.701 106.701s-47.923 106.701-106.701 106.701zM115.276-21.404c-35.226 0-63.898 28.672-63.898 64.102 0 35.226 28.672 64.102 63.898 64.102s64.102-28.672 64.102-64.102c-0.205-35.226-28.877-64.102-64.102-64.102zM925.875 746.598c58.778 0 106.701 47.923 106.701 106.701s-47.923 106.701-106.701 106.701c-58.778 0-106.701-47.923-106.701-106.701s47.923-106.701 106.701-106.701zM925.875 917.402c35.226 0 64.102-28.672 64.102-63.898s-28.672-64.102-64.102-64.102c-35.226 0-64.102 28.672-64.102 64.102 0.205 35.021 28.877 63.898 64.102 63.898zM925.875 149.399c-58.778 0-106.701-47.923-106.701-106.701s47.923-106.701 106.701-106.701c58.778 0 106.701 47.923 106.701 106.701s-47.923 106.701-106.701 106.701zM925.875-21.404c-35.226 0-64.102 28.672-64.102 64.102 0 35.226 28.672 64.102 64.102 64.102 35.226 0 64.102-28.672 64.102-64.102 0-35.226-28.877-64.102-64.102-64.102zM888.602 338.022c10.445 34.816 15.974 71.68 15.974 109.978s-5.734 75.162-15.974 109.978c-0.41 2.048-0.819 3.891-1.843 5.734-49.152 155.443-194.765 268.288-366.182 268.288s-317.031-112.845-366.183-268.288c-0.819-1.843-1.434-3.686-1.843-5.734-10.445-34.816-15.974-71.68-15.974-109.978s5.734-75.162 15.974-109.978c0.41-2.048 0.819-3.891 1.843-5.734 49.152-155.443 194.766-268.288 366.183-268.288s317.030 112.845 366.182 268.288c0.819 1.843 1.434 3.686 1.843 5.734zM836.992 576h-161.792c-18.227 74.957-52.634 146.842-103.424 209.51 120.627-18.227 220.57-99.738 265.216-209.51zM640.589 362.598h-240.026c-9.83 56.525-9.83 114.278 0 170.598h240.026c9.83-56.32 9.83-114.074 0-170.598zM520.576 779.571c54.272-59.802 91.136-129.843 110.797-203.571h-221.594c19.661 73.728 56.73 143.77 110.797 203.571zM469.376 785.51c-50.79-62.669-85.197-134.554-103.629-209.51h-161.793c44.851 109.773 144.795 191.283 265.422 209.51zM179.173 448c0 29.491 3.686 57.958 10.854 85.402h167.323c-9.011-56.525-9.011-114.074 0-170.598h-167.323c-6.963 27.238-10.854 55.706-10.854 85.197zM204.159 320h161.793c18.227-74.957 52.634-146.842 103.424-209.51-120.627 18.227-220.571 99.738-265.217 209.51zM520.576 116.429c-54.272 59.802-91.136 129.843-110.797 203.571h221.389c-19.456-73.728-56.525-143.77-110.592-203.571zM571.776 110.49c50.79 62.669 85.197 134.554 103.629 209.51h161.792c-44.851-109.773-144.794-191.283-265.421-209.51zM851.123 362.598h-167.322c9.011 56.525 9.011 114.074 0 170.598h167.322c6.963-27.238 10.854-55.91 10.854-85.402s-3.891-57.754-10.854-85.197z" />
<glyph unicode="&#xe933;" glyph-name="Destination" horiz-adv-x="1050" d="M797.763-64.005h-767.79c-7.576 0-14.537 3.891-18.427 10.445s-3.89 14.541-0.409 21.094l383.895 703.9c7.37 13.722 29.893 13.722 37.468 0l383.895-703.9c3.482-6.554 3.482-14.541-0.41-21.094-3.684-6.554-10.644-10.445-18.222-10.445zM66.008-21.407h695.925l-348.065 638.159-347.86-638.159zM1011.095-63.997h-213.343c-11.671 0-21.294 9.626-21.294 21.299s9.623 21.299 21.294 21.299h177.103l-197.169 358.81-81.283-168.346c-5.12-10.65-17.812-15.155-28.46-9.83-10.647 5.12-15.15 17.818-9.828 28.467l99.3 205.414c3.482 7.168 10.647 11.878 18.632 12.083 7.987-0.41 15.357-4.096 19.246-11.059l234.637-426.598c3.686-6.554 3.482-14.541-0.41-21.094-3.889-6.554-10.849-10.445-18.427-10.445zM413.868 640.102c-11.668 0-21.292 9.626-21.292 21.299v277.299c0 11.674 9.623 21.299 21.292 21.299h255.931c8.599 0 16.379-5.12 19.656-13.107s1.434-17.203-4.71-23.347l-70.021-70.247 70.226-70.246c6.144-6.144 7.987-15.36 4.506-23.347-3.277-7.987-11.057-13.107-19.656-13.107h-234.637v-85.401c0-11.674-9.418-21.094-21.294-21.094zM435.162 789.401h183.043l-48.934 48.947c-8.394 8.397-8.394 21.914 0 30.106l48.934 48.947h-183.043v-128zM477.947 319.99c-0.41 0-1.024 0-1.638 0-6.141 0.41-11.873 3.482-15.56 8.397l-46.886 62.464-46.886-62.464c-3.686-4.915-9.418-7.987-15.56-8.397-6.349-0.41-12.285 1.843-16.586 6.144l-71.66 71.68c-8.394 8.397-8.394 21.914 0 30.106 8.394 8.397 21.908 8.397 30.098 0l54.257-54.272 49.139 65.741c7.985 10.65 26.002 10.65 34.191 0l49.139-65.741 54.257 54.272c8.394 8.397 21.908 8.397 30.098 0 8.394-8.397 8.394-21.914 0-30.106l-71.66-71.68c-3.686-3.891-9.213-6.144-14.743-6.144z" />
<glyph unicode="&#xe934;" glyph-name="subtract-line" horiz-adv-x="1050" d="M221.9 490.675h597.333v-85.332h-597.333v85.332z" />
<glyph unicode="&#xe935;" glyph-name="add-line" horiz-adv-x="1050" d="M477.901 490.675v256h85.332v-256h256v-85.332h-256v-256h-85.332v256h-256.001v85.332h256.001z" />
<glyph unicode="&#xe936;" glyph-name="presentation" horiz-adv-x="1050" d="M1000.576 768c17.672 0 32 14.328 32 32v128c0 17.672-14.328 32-32 32h-960.001c-17.672 0-32-14.328-32-32v-128c0-17.672 14.328-32 32-32h16v-576h-16c-17.672 0-32-14.328-32-32s14.328-32 32-32h448.001v-108.262c-32.648-29.261-12.032-83.738 32-83.738 44.012 0 64.658 54.467 32 83.738v108.262h448c17.672 0 32 14.328 32 32s-14.328 32-32 32h-16v576h16zM72.575 896h896.001v-64c-43.231 0-849.821 0-896.001 0v64zM920.576 192h-800.001v576h800.001v-576zM233.563 523.781l90.438-39.188v-105.162c0-36.562 22.963-69.455 64.66-92.623 119.665-66.481 328.481-20.698 328.481 92.623v105.162l90.44 39.188c25.646 11.116 25.654 47.608 0 58.724l-274.286 118.856c-8.12 3.519-17.331 3.519-25.449 0l-274.286-118.856c-25.646-11.113-25.652-47.606 0.002-58.724v0zM653.146 379.43c0-24.23-51.645-59.428-132.572-59.428s-132.572 35.197-132.572 59.428v77.427l119.849-51.935c8.113-3.515 17.329-3.517 25.446 0l119.849 51.935v-77.427zM520.573 637.125l193.805-83.981c-344.576-149.315-106.739-46.252-193.805-83.983-68.989 29.896-114.068 49.428-193.805 83.983l193.805 83.981z" />
<glyph unicode="&#xe937;" glyph-name="Fitness" horiz-adv-x="1050" d="M997.164 766.186l-15.562 15.563 24.609 24.603c17.001 17.001 26.36 39.603 26.36 63.643s-9.367 46.643-26.36 63.644c-17.001 16.993-39.603 26.361-63.642 26.361-24.041 0-46.643-9.36-63.644-26.361l-24.604-24.611-15.562 15.563c-46.003 46.002-120.873 46.010-166.884 0l-1.413-1.414-21.212 21.212c-11.72 11.711-30.712 11.711-42.432 0l-113.137-113.138c-11.72-11.719-11.72-30.712 0-42.432l120.215-120.217-313.974-313.974-120.217 120.215c-11.711 11.712-30.713 11.712-42.424 0l-113.146-113.137c-11.711-11.72-11.711-30.712 0-42.432l21.212-21.212-1.414-1.413c-22.282-22.29-34.556-51.924-34.556-83.443 0-31.524 12.274-61.151 34.564-83.441l15.556-15.562-24.611-24.604c-17.001-17.001-26.361-39.603-26.361-63.642 0-24.041 9.36-46.643 26.361-63.644 17.548-17.549 40.595-26.314 63.643-26.314s46.096 8.773 63.644 26.314l24.603 24.609 15.563-15.562c23.001-23.002 53.213-34.501 83.442-34.501 30.211 0 60.439 11.5 83.441 34.501l1.413 1.413 21.212-21.212c5.86-5.86 13.54-8.788 21.212-8.788 7.68 0 15.36 2.929 21.212 8.788l113.147 113.139c11.712 11.72 11.712 30.712 0 42.432l-120.218 120.215 313.976 313.976 120.207-120.218c5.86-5.86 13.54-8.788 21.22-8.788 7.672 0 15.352 2.929 21.212 8.788l113.139 113.139c11.717 11.72 11.717 30.712 0 42.432l-21.212 21.212 1.413 1.413c46.019 46.011 46.019 120.881 0.008 166.883v0zM921.357 891.208c5.663 5.672 13.202 8.79 21.212 8.79 8.015 0 15.547-3.117 21.21-8.79 5.665-5.664 8.791-13.196 8.791-21.212 0-8.008-3.126-15.547-8.791-21.212l-24.602-24.61-42.432 42.431 24.612 24.603zM144.351 29.348l-24.611-24.602c-11.696-11.697-30.728-11.697-42.424 0-5.672 5.663-8.789 13.194-8.789 21.212 0 8.015 3.125 15.547 8.789 21.21l24.603 24.612 42.431-42.432zM326.789 13.793c-22.61-22.618-59.407-22.61-82.027 0l-158.398 158.397c-10.953 10.962-16.985 25.523-16.985 41.016s6.032 30.057 16.985 41.019l1.414 1.413 240.426-240.433-1.416-1.413zM413.066 15.206l-325.288 325.281 70.714 70.715 325.281-325.281-70.707-70.715zM384.776 269.78l-42.422 42.424 313.966 313.976 42.432-42.432-313.976-313.969zM882.604 484.751l-325.279 325.281 70.712 70.714 325.281-325.288-70.715-70.707zM875.533 718.106l-162.647 162.64 1.413 1.414c22.618 22.618 59.418 22.618 82.035 0l158.397-158.398c22.62-22.617 22.62-59.417 0-82.035l-1.413-1.416-77.786 77.794z" />
<glyph unicode="&#xe938;" glyph-name="Pencil" horiz-adv-x="845" d="M827.725 550.001c0 226.077-183.741 409.999-409.6 409.999-225.857 0-409.6-183.922-409.6-409.999 0-144.978 76.113-278.282 199.805-352.179v-51.822c0-39.936 26.131-73.859 62.165-85.594 12.175-70.554 73.718-124.406 147.63-124.406s135.455 53.852 147.63 124.406c36.035 11.735 62.164 45.658 62.164 85.594v51.822c123.692 73.897 199.805 207.201 199.805 352.179v0zM341.123 625.265h154.012l49.18-80h-252.38l49.188 80zM413.192 742.508c1.047 1.703 2.944 2.758 4.933 2.758 1.006 0 1.992-0.273 2.849-0.758 0.835-0.477 1.562-1.156 2.076-1.992l35.192-57.25h-80.236l35.185 57.242zM268.27 245.266v240h59.942v-240h-59.942zM388.155 485.266h59.94v-240h-59.94v240zM508.037 485.266h59.942v-240h-59.942v240zM418.125-3.999c-39.071 0-72.404 25.078-84.777 59.999h169.554c-12.37-34.921-45.706-59.999-84.777-59.999zM567.98 145.999c0-16.538-13.448-30.001-29.972-30.001h-239.764c-16.522 0-29.972 13.463-29.972 30.001v39.265h299.709v-39.265zM627.919 269.978v245.289c0 0.077-0.008 0.156-0.015 0.225 0 0.883-0.046 1.766-0.133 2.642-0.015 0.21-0.046 0.42-0.069 0.632-0.087 0.686-0.187 1.367-0.32 2.045-0.038 0.251-0.087 0.502-0.141 0.742-0.164 0.791-0.366 1.564-0.594 2.337-0.084 0.289-0.187 0.571-0.279 0.858-0.189 0.548-0.384 1.096-0.602 1.626-0.11 0.282-0.22 0.571-0.335 0.845-0.312 0.727-0.655 1.436-1.032 2.14-0.123 0.236-0.264 0.461-0.397 0.696-0.179 0.312-0.343 0.632-0.532 0.937l-149.368 242.968c-3.622 5.883-8.141 11.078-13.299 15.476-0.125 0.109-0.251 0.234-0.384 0.344-0.302 0.258-0.632 0.484-0.942 0.742-11.576 9.344-26.179 14.742-41.352 14.742-22.648 0-44.099-11.992-55.977-31.305l-63.296-102.97c-0.008 0-0.008-0.008-0.008-0.008l-86.065-139.991c-0.187-0.305-0.359-0.625-0.531-0.937-0.133-0.228-0.273-0.453-0.398-0.696-0.375-0.704-0.718-1.413-1.030-2.14-0.117-0.274-0.226-0.563-0.343-0.845-0.211-0.53-0.414-1.078-0.593-1.626-0.094-0.287-0.195-0.568-0.281-0.858-0.234-0.765-0.429-1.546-0.601-2.33-0.047-0.248-0.094-0.499-0.141-0.742-0.125-0.686-0.226-1.367-0.312-2.053-0.023-0.212-0.055-0.422-0.078-0.632-0.078-0.876-0.125-1.759-0.133-2.642 0-0.069-0.008-0.148-0.008-0.218v-245.297c-87.337 65.562-139.864 168.765-139.864 280.023 0 192.991 156.855 349.999 349.658 349.999s349.658-157.008 349.658-349.999c0-111.258-52.526-214.461-139.863-280.023z" />
<glyph unicode="&#xe939;" glyph-name="Mind" horiz-adv-x="973" d="M767.283-64h-436.426c-16.435 0-29.755 13.43-29.755 30.001v75.999h-49.594c-82.039 0-148.782 67.29-148.782 150.001v77.998h-53.135c-18.102 0-34.762 9.938-43.472 25.938s-8.082 35.507 1.635 50.906l84.333 133.594c6.959 11.822 10.632 25.329 10.632 39.078v7.265c0 112.509 42.434 219.25 119.483 300.563 77.358 81.64 181.219 128.664 292.449 132.414 116.803 3.898 227.249-38.914 311.063-120.64 83.845-81.757 130.020-191.537 130.020-309.116 0-68.672-15.66-134.298-46.541-195.062-27.098-53.315-65.695-101.11-112.159-139.023v-229.914c0.008-16.571-13.32-30.001-29.75-30.001v0zM360.614-4.001h376.914v214.548c0 9.428 4.393 18.304 11.863 23.974 44.603 33.838 81.544 78.024 106.836 127.775 26.54 52.219 40 108.639 40 167.703 0 101.171-39.736 195.632-111.887 265.991-72.113 70.32-167.186 107.179-267.699 103.796-95.585-3.219-184.868-43.664-251.41-113.89-66.417-70.094-102.993-162.117-102.993-259.118v-7.265c0-24.742-6.68-49.039-19.303-70.257-0.14-0.228-0.271-0.453-0.411-0.673l-74.864-118.584h64.821c16.428 0 29.756-13.43 29.756-30.001v-107.999c0-49.626 40.047-89.999 89.269-89.999h79.349c16.43 0 29.757-13.43 29.757-30.001v-76.001zM117.418 464.686v0zM519.306 333.996c-2.906 0-5.85 0.43-8.732 1.321-12.493 3.876-21.015 15.508-21.015 28.68v129.999h-158.702c-11.018 0-21.13 6.141-26.291 15.954s-4.518 21.704 1.667 30.892l188.457 279.999c7.337 10.906 20.874 15.703 33.367 11.836 12.49-3.875 21.015-15.508 21.015-28.68v-129.999h158.7c11.021 0 21.133-6.141 26.294-15.954s4.516-21.704-1.674-30.892l-188.457-279.997c-5.642-8.384-14.948-13.158-24.627-13.158v0zM387.008 553.997h132.306c16.428 0 29.757-13.43 29.757-30.001v-62.359l102.543 152.358h-132.301c-16.435 0-29.755 13.43-29.755 30.001v62.359l-102.551-152.359z" />
<glyph unicode="&#xe93a;" glyph-name="Open-book" d="M992 752h-80v64c0 17.672-14.326 32-32 32h-272c-38.203 0-72.525-16.844-96-43.472-23.475 26.628-57.797 43.472-96 43.472h-272c-17.672 0-32-14.328-32-32v-64h-80c-17.672 0-32-14.328-32-32v-640c0-17.672 14.328-32 32-32h960c17.674 0 32 14.328 32 32v640c0 17.672-14.326 32-32 32zM608 784h240v-576h-240c-23.296 0-45.161-6.259-64-17.178v529.178c0 35.29 28.71 64 64 64zM176 784h240c35.29 0 64-28.71 64-64v-529.178c-18.839 10.918-40.704 17.178-64 17.178h-240v576zM64 688h48v-512c0-17.672 14.328-32 32-32h272c23.636 0 44.306-12.89 55.391-32h-407.391v576zM960 112h-407.391c11.085 19.11 31.754 32 55.391 32h272c17.674 0 32 14.328 32 32v512h48v-576zM256 656h144c17.672 0 32 14.328 32 32s-14.328 32-32 32h-144c-17.672 0-32-14.328-32-32s14.328-32 32-32zM256 528h144c17.672 0 32 14.328 32 32s-14.328 32-32 32h-144c-17.672 0-32-14.328-32-32s14.328-32 32-32zM256 400h144c17.672 0 32 14.328 32 32s-14.328 32-32 32h-144c-17.672 0-32-14.328-32-32s14.328-32 32-32zM256 272h144c17.672 0 32 14.328 32 32s-14.328 32-32 32h-144c-17.672 0-32-14.328-32-32s14.328-32 32-32zM624 656h144c17.674 0 32 14.328 32 32s-14.326 32-32 32h-144c-17.674 0-32-14.328-32-32s14.326-32 32-32zM624 528h144c17.674 0 32 14.328 32 32s-14.326 32-32 32h-144c-17.674 0-32-14.328-32-32s14.326-32 32-32zM624 400h144c17.674 0 32 14.328 32 32s-14.326 32-32 32h-144c-17.674 0-32-14.328-32-32s14.326-32 32-32zM624 272h144c17.674 0 32 14.328 32 32s-14.326 32-32 32h-144c-17.674 0-32-14.328-32-32s14.326-32 32-32z" />
<glyph unicode="&#xe93b;" glyph-name="arrow-right-line-right" d="M690.015 490.68l-228.864 228.864 60.329 60.331 331.863-331.862-331.863-331.86-60.329 60.332 228.864 228.864h-519.34v85.332h519.34z" />
<glyph unicode="&#xe93c;" glyph-name="arrow-left-line" d="M334.003 490.68h519.34v-85.332h-519.34l228.864-228.864-60.332-60.332-331.861 331.86 331.861 331.862 60.332-60.331-228.864-228.864z" />
<glyph unicode="&#xe93d;" glyph-name="Setting" horiz-adv-x="1101" d="M1068.79 127.997h-95.997v480c0 17.672-14.328 32-32 32h-98.135v96c0 17.672-14.326 32-32 32h-39.145c-12.718 0-19.523 8.499-22.449 13.566-4.905 8.499-7.465 22.232 0.074 35.285l16.658 28.851c8.742 15.138 3.715 34.49-11.287 43.462l-110.851 66.298c-15.506 9.271-35.592 3.868-44.37-11.874l-19.054-34.159c-0.003 0-0.003 0-0.003-0.002-5.366-9.624-15.132-15.371-26.117-15.371-4.951 0-17.239 1.398-24.463 14.353l-19.62 35.179c-8.822 15.812-28.938 21.109-44.375 11.874l-110.848-66.295c-15.002-8.973-20.029-28.324-11.287-43.462l15.834-27.428c6.717-11.631 6.797-26.524 0.207-37.939-3.249-5.628-9.367-12.335-20.058-12.335h-40.847c-17.672 0-32-14.328-32-32v-95.999h-98.132c-17.672 0-32-14.328-32-32v-480h-96c-17.673 0-32-14.328-32-32 0-88.225 71.776-160 160-160h772.268c88.223 0 159.997 71.775 159.997 160 0 17.669-14.326 31.997-32 31.997v0zM330.657 703.997h8.845c31.24 0 59.456 16.574 75.484 44.335 18.089 31.33 18.010 70.391-0.207 101.939l-0.079 0.138 55.501 33.195 3.556-6.372c16.476-29.542 46.518-47.178 80.358-47.178 34.007 0 65.436 18.468 82.012 48.198l2.985 5.352 55.501-33.195-0.901-1.564c-17.702-30.66-17.731-68.704-0.074-99.285 16.474-28.531 45.586-45.566 77.875-45.566h7.145v-64h-6.467c-32.712 0-62.17-17.196-78.799-46.001-17.503-30.316-17.523-67.942-0.056-98.194l1.034-1.795-55.424-32-2.726 4.721c-17.070 29.571-47.77 47.224-82.112 47.224-33.651 0-63.662-17.18-80.274-45.955l-3.461-5.993-55.421 32c0.189 0.689 31.498 47.109 1.641 98.826-17.050 29.532-47.332 47.163-81.006 47.163h-4.928v64.005zM200.525 575.997h135.060c15.183 0 22.945-10.606 25.577-15.163 5.78-10.012 5.847-21.86 0.174-31.68l-17.815-30.858c-8.832-15.296-3.592-34.877 11.709-43.712l110.851-64c15.237-8.799 34.839-3.661 43.712 11.712l19.461 33.702c7.27 12.595 19.799 13.955 24.85 13.955 11.205 0 21.184-5.691 26.688-15.224l18.726-32.435c8.837-15.306 28.403-20.547 43.712-11.712l110.848 64c15.309 8.835 20.552 28.406 11.712 43.712l-17.034 29.507c-7.255 12.567-4.728 25.905 0.059 34.196 3.018 5.228 10.068 14.001 23.373 14.001h136.599v-448h-708.262v448zM940.792-0.003h-772.268c-41.721 0-77.31 26.749-90.517 64.020h953.301c-13.207-37.271-48.796-64.020-90.516-64.020zM554.65 576c52.936 0 96 43.064 96 96 0 52.934-43.064 96-96 96-52.933 0-96-43.066-96-96 0-52.936 43.067-96 96-96zM554.65 704c17.646 0 32-14.356 32-32 0-17.646-14.354-32-32-32-17.644 0-32 14.354-32 32 0 17.644 14.356 32 32 32z" />
<glyph unicode="&#xe93e;" glyph-name="Microscope" horiz-adv-x="1050" d="M842.524 155.999h-369.574l-26.289 26.291c-10.524 10.522-20.045 21.809-28.544 33.71h442.406c16.568 0 30.001 13.432 30.001 30.001 0 16.566-13.432 29.998-30.001 29.998h-474.616c-18.609 48.525-23.086 102.106-11.666 154.061 8.479 4.767 16.266 10.616 23.168 17.375l28.288-23.736c13.092-10.985 29.053-16.346 44.936-16.346 16.835 0 33.564 6.049 46.687 17.789l69.512-58.327c5.622-4.716 12.462-7.020 19.269-7.020 8.558 0 17.062 3.645 22.996 10.716l77.133 91.924c5.115 6.095 7.601 13.97 6.907 21.898-0.694 7.926-4.508 15.25-10.606 20.367l-69.489 58.309c7.956 12.777 11.564 27.717 10.227 42.977-1.628 18.627-10.414 35.502-24.737 47.524l-260.454 218.546c-14.323 12.018-32.479 17.744-51.095 16.11-15.263-1.334-29.345-7.482-40.548-17.536l-46.51 39.026 0.886 1.056c10.65 12.692 8.996 31.616-3.698 42.266-12.694 10.652-31.616 8.994-42.264-3.698l-117.474-140c-10.65-12.692-8.996-31.616 3.698-42.266 5.622-4.716 12.462-7.020 19.268-7.020 8.56 0 17.062 3.646 22.996 10.716l0.886 1.056 46.51-39.026c-7.956-12.778-11.564-27.714-10.23-42.979 1.63-18.624 10.416-35.502 24.74-47.521l64.544-54.157c-12.14-17.682-19.262-39.066-19.262-62.088 0-4.846 0.348-9.613 0.96-14.298-36.65-54.021-56.152-116.884-56.528-182.656-0.354-61.65 16.17-120.95 47.996-173.046h-4.428c-104.766 0-190-85.233-190-189.998 0-16.568 13.432-30.001 30-30.001h963.999c16.566 0 29.998 13.432 29.998 30.001 0 104.765-85.233 189.998-189.998 189.998v0zM320.525 576c27.569 0 49.999-22.431 49.999-50.002 0-27.569-22.431-49.999-49.999-49.999-27.571 0-49.999 22.431-49.999 49.999 0 27.571 22.428 50.002 49.999 50.002zM602.417 432.061l-45.962 38.566 38.566 45.965 45.962-38.566-38.566-45.965zM181.357 863.696l45.964-38.568-38.568-45.964-45.962 38.568 38.566 45.964zM200.275 694.996c-0.134 1.541-0.016 4.539 2.3 7.301l102.849 122.567c2.314 2.76 5.245 3.398 6.787 3.534 1.541 0.138 4.541 0.016 7.301-2.302l260.452-218.547c2.762-2.319 3.402-5.251 3.538-6.792 0.136-1.539 0.015-4.536-2.301-7.299l-102.845-122.565c-3.548-4.227-9.869-4.774-14.090-1.234l-36.754 30.838c1.951 8.192 3.016 16.722 3.016 25.5 0 60.654-49.347 110.001-110.001 110.001-15.519 0-30.287-3.249-43.686-9.070l-73.030 61.279c-2.762 2.317-3.398 5.248-3.534 6.789v0zM266.437 168.876c-60.215 82.793-67.834 189.96-23.080 278.828 17.73-17.477 41.343-28.979 67.563-31.258-12.603-93.519 15.741-188.89 78.234-260.444h-113.352l-9.364 12.874zM72.019-4.001c13.576 57.27 65.146 100.001 126.506 100.001h643.999c61.361 0 112.929-42.729 126.505-100.001h-897.010z" />
<glyph unicode="&#xe93f;" glyph-name="student-read" horiz-adv-x="870" d="M853.332 299.986c0 48.292-34.143 88.696-79.378 97.989v108.014c0 9.841-4.787 19.054-12.813 24.66-8.026 5.604-18.271 6.889-27.407 3.43l-56.814-21.473c-37.309 39.091-82.66 68.534-132.355 86.61 48.835 36.467 80.55 94.958 80.55 160.779 0 110.285-89.021 200.005-198.449 200.005s-198.45-89.72-198.45-200.005c0-65.821 31.715-124.312 80.55-160.779-49.697-18.076-95.044-47.519-132.353-86.61l-56.814 21.473c-9.14 3.459-19.385 2.173-27.408-3.43-8.025-5.606-12.812-14.82-12.812-24.66v-108.014c-45.237-9.293-79.38-49.695-79.38-97.989 0-48.297 34.143-88.699 79.38-97.992v-116.014c0-12.506 7.698-23.7 19.315-28.091l317.52-120.003c6.694-2.516 14.205-2.516 20.902 0l317.519 120.003c11.617 4.39 19.315 15.585 19.315 28.091v116.014c45.238 9.293 79.38 49.697 79.38 97.992zM287.752 759.995c0 77.198 62.318 140.003 138.916 140.003s138.913-62.806 138.913-140.003c0-77.197-62.316-140.002-138.913-140.002s-138.916 62.804-138.916 140.002zM426.668 559.99c69.74 0 136.351-25.4 188.326-70.787l-188.326-71.176-188.328 71.176c51.977 45.386 118.588 70.787 188.328 70.787v0zM59.535 299.986c0 22.057 17.805 40 39.69 40h19.845v-80.003h-19.845c-21.885 0-39.69 17.946-39.69 40.003zM138.915 200.988c22.617 4.646 39.69 24.85 39.69 48.996v100.001c0 24.148-17.073 44.349-39.69 48.996v63.718l257.985-97.503v-355.93l-257.985 97.503v94.218zM456.435 9.27v355.927l257.984 97.503v-63.718c-22.618-4.646-39.69-24.847-39.69-48.996v-100.001c0-24.146 17.073-44.349 39.69-48.996v-94.218l-257.984-97.5zM754.109 259.983h-19.845v80.003h19.845c21.883 0 39.69-17.943 39.69-40s-17.805-40.003-39.69-40.003z" />
<glyph unicode="&#xe940;" glyph-name="trophy" d="M912 864c-69.437 0-89.567-63.016-109.978-99.592 10.176 105.292 28.063 127.8 32.195 131.666 16.64 1.14 29.783 14.998 29.783 31.926 0 17.672-14.326 32-32 32h-640c-17.674 0-32-14.328-32-32 0-16.928 13.144-30.786 29.784-31.924 4.13-3.868 22.018-26.376 32.194-131.666-20.534 36.792-40.528 99.59-109.978 99.59-51.666 0-112-41.904-112-160 0-78.241 22.84-134.756 69.824-172.777 39.68-32.11 89.294-44.654 133.070-55.721 78.353-19.809 101.106-30.231 101.106-78.249 0-11.727-14.3-17.7-22.625-9.372-12.495 12.498-32.759 12.498-45.257 0-12.496-12.495-12.498-32.758-0.002-45.253 38.293-38.295 102.818-26.22 125.041 22.899 36.692-31.946 77.14-52.040 118.843-58.88v-114.647h-128c-17.674 0-32-14.328-32-32v-160h-32c-17.674 0-32-14.328-32-32s14.326-32 32-32h448c17.674 0 32 14.328 32 32s-14.326 32-32 32h-32v160c0 17.672-14.326 32-32 32h-128v114.647c41.7 6.84 82.148 26.934 118.843 58.88 22.244-49.167 86.781-61.161 125.041-22.899 12.495 12.498 12.495 32.758-0.003 45.253-12.498 12.498-32.758 12.498-45.256 0-8.323-8.328-22.625-2.358-22.625 9.372v2.747c0 45.847 26.209 56.566 101.107 75.502 43.776 11.067 93.389 23.611 133.069 55.721 46.984 38.021 69.824 94.536 69.824 172.777 0 118.096-60.334 160-112 160v0zM640 0h-256v128h256v-128zM64 704c0 44.286 12.57 96 48 96 17.434 0 25.72-10.996 43.378-46.31 14.192-28.388 32.726-65.388 72.194-77.579 1.372-37.578-0.61-79.854 24.166-147.297-94.862 27.077-187.738 30.106-187.738 175.186zM512 368c-118.108 0-216.883 159.45-219.528 278.331-1.505 67.847-6.93 185.777-30.807 249.669h500.669c-23.88-63.89-29.302-181.822-30.807-249.669-2.642-118.671-101.292-278.331-219.528-278.331zM772.26 528.812c24.207 65.892 22.651 105.782 24.166 147.297 72.141 22.282 71.977 123.891 115.574 123.891 35.43 0 48-51.714 48-96 0-144.668-92.134-147.896-187.74-175.188z" />
<glyph unicode="&#xe941;" glyph-name="mail-open-line" d="M95.693 667.551l394.539 236.544c6.63 3.979 14.218 6.081 21.952 6.081s15.322-2.102 21.952-6.081l394.153-236.587c3.164-1.894 5.78-4.577 7.598-7.785s2.772-6.833 2.77-10.519v-542.548c0-11.315-4.493-22.17-12.495-30.17-8.003-8.003-18.854-12.498-30.17-12.498h-768.001c-11.316 0-22.168 4.495-30.17 12.498-8.002 8-12.497 18.854-12.497 30.17v542.592c-0.001 3.686 0.954 7.311 2.771 10.519s4.434 5.891 7.597 7.785zM170.658 612.979v-463.657h682.666v463.7l-341.164 204.8-341.503-204.843zM514.552 375.539l225.961 190.423 54.956-65.28-280.32-236.247-286.293 235.948 54.273 65.876 231.424-190.72z" />
<glyph unicode="&#xe942;" glyph-name="account-circle-line" d="M511.992 21.343c-235.648 0-426.667 191.017-426.667 426.665s191.019 426.667 426.667 426.667c235.648 0 426.665-191.019 426.665-426.667s-191.017-426.665-426.665-426.665zM299.213 181.087c60.398-48.287 135.452-74.534 212.78-74.412 84.052 0 160.98 30.38 220.457 80.724-27.786 28.513-61.010 51.164-97.705 66.611-36.692 15.45-76.111 23.383-115.927 23.332-41.275 0.046-82.112-8.486-119.916-25.055-37.804-16.571-71.752-40.817-99.689-71.201v0zM239.608 242.355c35.858 38.054 79.133 68.365 127.153 89.057s99.768 31.332 152.056 31.263c50.419 0.067 100.352-9.828 146.934-29.115s88.896-47.585 124.513-83.269c36.526 51.407 58.097 111.931 62.318 174.851 4.219 62.922-9.073 125.783-38.405 181.609-29.332 55.828-73.556 102.436-127.764 134.657-54.211 32.221-116.288 48.794-179.346 47.88-63.055-0.914-124.626-19.278-177.879-53.056-53.256-33.778-96.11-81.648-123.812-138.3s-39.168-119.875-33.125-182.646c6.043-62.774 29.357-122.644 67.357-172.974v0.044zM511.992 405.343c-45.263 0-88.673 17.979-120.681 49.987-32.005 32.005-49.987 75.415-49.987 120.678s17.981 88.673 49.987 120.681c32.008 32.005 75.418 49.986 120.681 49.986s88.673-17.981 120.678-49.986c32.008-32.008 49.987-75.418 49.987-120.681s-17.979-88.673-49.987-120.678c-32.005-32.008-75.415-49.987-120.678-49.987zM511.992 490.675c22.63 0 44.337 8.991 60.339 24.993s24.993 37.709 24.993 60.339c0 22.633-8.991 44.337-24.993 60.339-16.003 16.005-37.709 24.996-60.339 24.996-22.633 0-44.337-8.991-60.339-24.996-16.005-16.003-24.996-37.706-24.996-60.339 0-22.63 8.991-44.337 24.996-60.339 16.003-16.003 37.706-24.993 60.339-24.993z" />
<glyph unicode="&#xe943;" glyph-name="Schoolbag" horiz-adv-x="1050" d="M943.898 395.999h-50.196v110.001c0 59.031-13.972 114.865-38.764 164.426l89.577 154.544c19.372 33.426 7.834 76.322-25.723 95.622l-52.168 30c-16.259 9.35-35.197 11.832-53.325 6.994-18.13-4.84-33.285-16.422-42.67-32.616l-58.57-101.048c-55.583 33.052-120.502 52.078-189.809 52.078s-134.226-19.026-189.811-52.078l-58.57 101.046c-9.385 16.194-24.539 27.776-42.67 32.616-18.129 4.836-37.069 2.356-53.326-6.992l-52.166-30c-33.557-19.298-45.096-62.194-25.722-95.622l89.576-154.541c-24.787-49.564-38.761-105.398-38.761-164.429v-110.001h-50.196c-49.821 0-90.353-40.374-90.353-89.999v-200c0-49.626 40.532-89.999 90.353-89.999h50.766c5.012-44.936 43.355-80 89.783-80h562.196c46.428 0 84.769 35.064 89.782 80h50.767c49.82 0 90.353 40.374 90.353 89.999v200c0 49.626-40.532 89.999-90.353 89.999zM943.898 336c16.607 0 30.118-13.458 30.118-30.001v-30.001h-80.315v60.001h50.196zM822.797 894.969c1.807 3.12 4.595 4.258 6.095 4.658 1.503 0.4 4.485 0.804 7.619-0.998l52.165-30c4.795-2.756 6.441-8.886 3.674-13.662l-73.393-126.624c-16.873 22.286-36.224 42.608-57.626 60.582l61.466 106.044zM152.15 854.967c-2.767 4.776-1.12 10.906 3.674 13.662l52.166 30c3.132 1.802 6.118 1.4 7.618 0.998 1.5-0.4 4.287-1.538 6.096-4.66l61.465-106.042c-21.402-17.972-40.752-38.296-57.626-60.582l-73.393 126.624zM100.603 336h50.196v-60.001h-80.314v30.001c0 16.543 13.511 30.001 30.118 30.001zM70.485 105.999v110.001h80.314v-140.001h-50.196c-16.607 0-30.118 13.458-30.118 30.001zM712.996 195.999h-381.491v30.001c0 16.543 13.512 30.001 30.118 30.001h321.254c16.607 0 30.118-13.458 30.118-30.001v-30.001zM331.505-4.001v140.001h261.020v-30.001c0-16.568 13.484-30.001 30.118-30.001 16.632 0 30.116 13.432 30.116 30.001v30.001h60.237v-140.001h-381.491zM833.467 25.999c0-16.543-13.512-30.001-30.118-30.001h-30.118v230.001c0 49.626-40.532 89.999-90.353 89.999h-321.254c-49.82 0-90.353-40.374-90.353-89.999v-230.001h-30.118c-16.607 0-30.118 13.458-30.118 30.001v480c0 170.934 139.611 310 311.216 310s311.217-139.066 311.217-310v-480zM943.898 75.999h-50.196v140.001h80.315v-110.001c0-16.543-13.512-30.001-30.118-30.001zM522.268 756c-138.391 0-250.98-112.15-250.98-250.001v-40c0-49.626 40.532-89.999 90.353-89.999h321.254c49.82 0 90.353 40.374 90.353 89.999v40c0 137.851-112.589 250.001-250.98 250.001zM713.014 465.999c0-16.54-13.512-29.998-30.118-29.998h-321.254c-16.607 0-30.118 13.458-30.118 29.998v40c0 104.768 85.568 190.001 190.746 190.001 36.564 0 70.756-10.309 99.809-28.155l-21.722-21.637c-11.763-11.717-11.763-30.71 0-42.427 5.88-5.857 13.588-8.786 21.294-8.786s15.416 2.929 21.297 8.786l24.916 24.817c28.147-33.111 45.151-75.912 45.151-122.598v-40z" />
<glyph unicode="&#xe944;" glyph-name="Class" horiz-adv-x="1050" d="M672.251 95.38c-32.274 48.55-87.46 80.62-150.001 80.62-62.543 0-117.727-32.069-150.001-80.62-32.274 48.55-87.457 80.62-150 80.62-99.252 0-180-80.748-180-179.999v-30.001c0-16.568 13.432-30.001 30-30.001h899.999c16.568 0 30.001 13.432 30.001 30.001v30.001c0 99.251-80.748 179.999-180.001 179.999-62.541 0-117.724-32.069-149.998-80.62zM102.25-3.999c0 66.166 53.832 119.997 120 119.997s119.999-53.832 119.999-119.997h-239.999zM402.25-3.999c0 66.166 53.832 119.997 120 119.997s120-53.832 120-119.997h-240zM822.249 115.999c66.168 0 120-53.832 120-119.997h-240c0 66.166 53.834 119.997 120 119.997zM1004.25 960h-963.999c-16.568 0-30-13.432-30-30v-603.999c0-16.568 13.432-30.001 30-30.001h62c0-66.168 53.832-120 120-120s119.999 53.832 119.999 120h60.001c0-66.168 53.832-120 120-120s120 53.832 120 120h59.999c0-66.168 53.834-120 120-120 66.168 0 120 53.832 120 120h62.001c16.568 0 30.001 13.432 30.001 30.001v603.999c0 16.568-13.432 30-30.001 30zM222.25 236.001c-33.084 0-60 26.916-60 59.999s26.916 59.999 60 59.999c33.084 0 60-26.916 60-59.999s-26.916-59.999-60-59.999zM522.25 236.001c-33.085 0-60.001 26.916-60.001 59.999s26.916 59.999 60.001 59.999c33.083 0 59.999-26.916 59.999-59.999s-26.916-59.999-59.999-59.999zM822.249 236.001c-33.083 0-59.999 26.916-59.999 59.999s26.916 59.999 59.999 59.999c33.085 0 60.001-26.916 60.001-59.999s-26.916-59.999-60.001-59.999zM974.249 355.999h-48.143c-20.782 35.832-59.538 60.001-103.857 60.001-44.316 0-83.072-24.169-103.854-60.001h-92.288c-20.782 35.832-59.538 60.001-103.857 60.001s-83.075-24.169-103.857-60.001h-92.288c-20.782 35.832-59.538 60.001-103.856 60.001s-83.074-24.169-103.856-60.001h-48.144v544.001h903.999v-544.001zM446.477 542.477c8.832-5.458 19.873-5.97 29.189-1.313l180.001 89.999c10.163 5.084 16.584 15.47 16.584 26.834s-6.42 21.75-16.584 26.834l-180.001 90.001c-9.3 4.65-20.342 4.156-29.189-1.314-8.842-5.466-14.226-15.122-14.226-25.52v-180c0-10.399 5.384-20.052 14.226-25.521v0zM492.25 699.456l82.918-41.459-82.918-41.457v82.916z" />
<glyph unicode="&#xe945;" glyph-name="Headphone" horiz-adv-x="870" d="M342.136 115.996h422.4c49.91 0 90.514 40.374 90.514 90.002 0 30.989 0 297.523 0 329.999 0 232.316-189.053 424.003-422.4 424.003-233.612 0-422.4-191.973-422.4-424.003v-120c0-66.168 54.14-120 120.686-120v-30.001c0-16.568 13.509-30.001 30.171-30.001h60.343c49.91 0 90.514 40.376 90.514 90.002v180.001c0 49.626-40.604 89.999-90.514 89.999h-60.343c-16.663 0-30.171-13.432-30.171-30.001v-30.001c-21.975 0-42.576-5.898-60.343-16.143v16.143c0 200.712 162.419 364.002 362.057 364.002s362.056-163.291 362.056-364.002v-16.143c-17.766 10.245-38.367 16.143-60.342 16.143v30.001c0 16.568-13.509 30.001-30.172 30.001h-60.342c-49.91 0-90.514-40.374-90.514-89.999v-180.001c0-49.626 40.604-90.002 90.514-90.002h60.342c16.663 0 30.172 13.432 30.172 30.001v30.001c21.975 0 42.575 5.898 60.342 16.143v-106.143c0-16.543-13.535-30.001-30.17-30.001h-422.4c-49.91 0-90.515-40.374-90.515-90.002 0-49.626 40.605-89.999 90.515-89.999h181.028c16.637 0 30.172-13.453 30.172-29.993 0-16.568 13.509-30.003 30.17-30.003 16.663 0 30.172 13.435 30.172 30.003 0 49.623-40.604 89.994-90.514 89.994h-181.028c-16.637 0-30.172 13.458-30.172 29.998 0 16.543 13.535 30.001 30.172 30.001v0zM191.279 535.997h30.171c16.636 0 30.171-13.458 30.171-29.998v-180.001c0-16.543-13.535-30.001-30.171-30.001h-30.171v240zM130.936 475.999v-120c-33.273 0-60.343 26.916-60.343 59.999 0 33.085 27.070 60.001 60.343 60.001zM674.022 295.997h-30.172c-16.637 0-30.172 13.458-30.172 30.001v180.001c0 16.54 13.535 29.998 30.172 29.998h30.172v-240zM734.364 355.999v120c33.272 0 60.342-26.916 60.342-60.001 0-33.083-27.069-59.999-60.342-59.999z" />
<glyph unicode="&#xe946;" glyph-name="file-list-4-line" horiz-adv-x="1050" d="M863.583 21.343h-682.666c-11.316 0-22.168 4.495-30.17 12.495-8.002 8.003-12.497 18.854-12.497 30.17v768.001c0 11.316 4.495 22.168 12.497 30.17s18.854 12.497 30.17 12.497h682.666c11.318 0 22.17-4.495 30.17-12.497 8.003-8.002 12.498-18.854 12.498-30.17v-768.001c0-11.315-4.495-22.167-12.498-30.17-8-8-18.852-12.495-30.17-12.495zM820.918 106.675v682.666h-597.335v-682.666h597.335zM351.583 661.343h341.335v-85.335h-341.335v85.335zM351.583 490.675h341.335v-85.332h-341.335v85.332zM351.583 320.008h213.335v-85.332h-213.335v85.332z" />
<glyph unicode="&#xe947;" glyph-name="phone-line" horiz-adv-x="1050" d="M409.866 504.236c40.036-70.336 98.284-128.584 168.62-168.62l37.716 52.82c6.065 8.494 15.032 14.469 25.208 16.796 10.173 2.33 20.849 0.845 30.003-4.165 60.344-32.978 126.984-52.813 195.54-58.199 10.701-0.847 20.687-5.696 27.971-13.581s11.325-18.225 11.325-28.956v-190.38c0.003-10.565-3.914-20.754-10.993-28.595-7.078-7.844-16.814-12.78-27.323-13.857-22.612-2.348-45.396-3.5-68.352-3.5-365.225 0-661.333 296.108-661.333 661.333 0 22.955 1.152 45.739 3.499 68.352 1.078 10.509 6.015 20.244 13.858 27.322s18.032 10.995 28.596 10.992h190.38c10.732 0.001 21.071-4.043 28.956-11.326s12.733-17.27 13.581-27.97c5.386-68.557 25.219-135.196 58.199-195.54 5.010-9.155 6.492-19.83 4.165-30.003s-8.302-19.144-16.796-25.208l-52.82-37.716zM302.262 532.268l81.065 57.897c-23.007 49.661-38.769 102.364-46.804 156.502h-112.512c-0.256-7.083-0.384-14.208-0.384-21.334-0.043-318.122 257.836-576.001 575.957-576.001 7.127 0 14.252 0.128 21.335 0.428v112.512c-54.139 8.036-106.842 23.798-156.503 46.804l-57.897-81.065c-23.311 9.057-45.952 19.75-67.756 32l-2.476 1.408c-83.686 47.626-152.991 116.931-200.617 200.617l-1.408 2.476c-12.25 21.804-22.943 44.444-32 67.756v0z" />
<glyph unicode="&#xe948;" glyph-name="price-tag-3-line" horiz-adv-x="1050" d="M475.328 870.4l422.356-60.373 60.332-422.399-392.192-392.192c-8.003-8-18.852-12.493-30.167-12.493-11.313 0-22.164 4.493-30.164 12.493l-422.4 422.4c-7.999 8-12.492 18.852-12.492 30.164s4.494 22.164 12.492 30.164l392.236 392.236zM505.492 779.861l-331.904-331.861 362.069-362.028 331.863 331.863-45.228 316.799-316.8 45.226zM595.945 508.332c-16.005 16.010-24.996 37.727-24.991 60.367 0 11.21 2.212 22.31 6.502 32.666 4.293 10.355 10.583 19.766 18.511 27.692s17.339 14.213 27.697 18.501c10.358 4.288 21.458 6.492 32.668 6.492 22.641-0.005 44.352-9.004 60.36-25.014 16.005-16.013 24.996-37.727 24.993-60.367-0.005-22.641-9.004-44.352-25.014-60.36-16.013-16.005-37.727-24.996-60.367-24.991-22.641 0.003-44.352 9.001-60.36 25.014v0z" />
<glyph unicode="&#xe949;" glyph-name="Laugh" horiz-adv-x="1050" d="M884.406 810.155c-96.94 96.597-225.28 149.845-362.156 149.845s-265.216-53.248-362.155-149.845c-96.597-96.939-149.845-225.279-149.845-362.155s53.248-265.216 149.845-362.156c96.939-96.596 225.279-149.844 362.155-149.844s265.216 53.248 362.156 149.844c96.596 96.94 149.844 225.28 149.844 362.156s-53.248 265.216-149.844 362.155zM522.25-2.9c-248.832 0-450.902 202.068-450.902 450.9s202.070 450.901 450.902 450.901c248.832 0 450.9-202.069 450.9-450.901s-202.068-450.9-450.9-450.9zM411.643 583.173c-49.836 49.836-131.072 49.836-180.908 0-11.947-11.945-11.947-31.060 0-43.008 11.946-11.945 31.061-11.945 43.008 0 26.284 26.284 68.608 26.284 94.892 0 5.801-5.801 13.652-8.873 21.504-8.873 7.849 0 15.7 3.072 21.504 8.873 11.604 11.948 11.604 31.063 0 43.008zM814.093 583.173c-49.836 49.836-131.072 49.836-180.908 0-11.948-11.945-11.948-31.060 0-43.008 11.948-11.945 31.060-11.945 43.008 0 26.284 26.284 68.608 26.284 94.892 0 5.801-5.801 13.652-8.873 21.504-8.873 7.849 0 15.7 3.072 21.504 8.873 11.945 11.948 11.945 31.063 0 43.008zM792.576 425.8h-540.672c-16.726 0-30.379-13.652-30.379-30.38 0-165.888 134.827-300.713 300.715-300.713s300.716 134.825 300.716 300.713c0 16.727-13.655 30.38-30.38 30.38zM522.24 155.464c-121.856 0-222.892 91.476-237.908 209.236h475.476c-14.676-117.76-115.712-209.236-237.568-209.236z" />
<glyph unicode="&#xe94a;" glyph-name="Support" horiz-adv-x="1050" d="M884.406 810.155c-96.94 96.597-225.28 149.845-362.156 149.845s-265.216-53.248-362.155-149.845c-96.597-96.939-149.845-225.279-149.845-362.155s53.248-265.216 149.845-362.156c96.939-96.596 225.279-149.844 362.155-149.844s265.216 53.248 362.156 149.844c96.596 96.94 149.844 225.28 149.844 362.156s-53.248 265.216-149.844 362.155zM551.946 899.925c144.384-9.216 270.676-86.698 346.796-200.362l-216.748-125.271c-20.14 25.6-46.080 45.74-75.776 59.052l-54.272 80.555v186.026zM492.554 899.925v-186.026l-54.272-80.555c-29.696-13.312-55.296-33.452-75.776-59.052l-216.747 125.271c76.118 113.663 202.411 191.146 346.795 200.362zM69.301 448c0 72.020 16.725 139.948 46.762 200.364l217.087-125.271c-9.556-23.552-14.336-49.152-14.336-75.092 0-26.624 5.12-51.884 14.336-75.092l-217.087-125.271c-30.037 60.416-46.762 128.343-46.762 200.364zM492.554-3.924c-144.384 9.216-270.678 86.697-346.795 200.361l217.087 125.271c31.404-39.596 77.484-67.584 130.048-75.095l-0.34-250.537zM377.866 448c0 59.392 35.84 112.3 91.136 134.144 5.46 2.048 10.24 6.144 13.652 10.924l39.596 59.049 39.936-59.049c3.412-4.78 8.192-8.876 13.652-10.924 55.296-22.188 91.136-74.752 91.136-134.144 0-79.532-64.852-144.384-144.384-144.384-79.872 0-144.724 64.852-144.724 144.384zM551.946-3.924v250.537c52.564 7.511 98.304 35.5 130.048 75.095l217.088-125.271c-76.46-113.664-202.752-191.145-347.136-200.361zM711.35 372.908c9.216 23.209 14.336 48.468 14.336 75.092 0 25.94-4.78 51.54-14.336 75.092l217.088 125.271c30.036-60.416 46.761-128.343 46.761-200.364s-16.724-139.948-46.761-200.364l-217.088 125.271zM522.237 571.899c-30.036 0-56.32-18.089-66.9-45.737-5.804-15.36 1.708-32.428 16.724-38.231 15.36-5.801 32.428 1.708 38.231 16.727 2.048 5.12 6.825 8.192 11.945 8.192 7.168 0 12.972-5.804 12.972-12.972s-5.804-12.972-12.972-12.972c-16.384 0-29.696-13.312-29.696-29.696v-30.377c0-16.384 13.312-29.696 29.696-29.696s29.696 13.312 29.696 29.696v7.508c24.919 11.264 42.327 36.524 42.327 65.536 0 39.936-32.428 72.020-72.023 72.020zM522.243 386.199c-15.36 0-30.377-13.652-29.696-29.696 0.684-16.041 12.972-29.696 29.696-29.696 15.36 0 30.38 13.655 29.696 29.696-1.024 16.044-12.969 29.696-29.696 29.696z" />
<glyph unicode="&#xe94b;" glyph-name="Play" horiz-adv-x="1050" d="M995.85 470.17c17.068-9.853 17.068-34.486 0-44.339l-691.2-399.066c-17.068-9.853-38.4 2.463-38.4 22.17v798.13c0 19.707 21.332 32.024 38.4 22.17l691.2-399.065z" />
<glyph unicode="&#xe94c;" glyph-name="map-pin-line" horiz-adv-x="1050" d="M522.25 68.278l211.2 211.2c41.766 41.772 70.208 94.989 81.731 152.924 11.52 57.933 5.604 117.985-17.001 172.557-22.607 54.572-60.887 101.216-110.003 134.032-49.114 32.817-106.857 50.332-165.926 50.332s-116.813-17.516-165.926-50.332c-49.116-32.817-87.396-79.461-110.003-134.032s-28.523-114.624-17.001-172.557c11.522-57.935 39.964-111.153 81.73-152.924l211.2-211.2zM522.25-52.383l-271.531 271.532c-53.703 53.701-90.275 122.125-105.091 196.613s-7.212 151.698 21.853 221.865c29.064 70.166 78.282 130.139 141.432 172.333 63.148 42.194 137.39 64.715 213.338 64.715s150.19-22.521 213.338-64.715c63.15-42.194 112.369-102.167 141.432-172.333s36.669-147.377 21.852-221.865c-14.817-74.488-51.389-142.912-105.091-196.613l-271.532-271.532zM522.25 405.345c22.633 0 44.337 8.991 60.339 24.993s24.993 37.709 24.993 60.339c0 22.633-8.991 44.337-24.993 60.339-16.003 16.005-37.706 24.996-60.339 24.996s-44.337-8.991-60.339-24.996c-16.003-16.003-24.993-37.706-24.993-60.339 0-22.63 8.991-44.337 24.993-60.339s37.706-24.993 60.339-24.993zM522.25 320.013c-45.263 0-88.673 17.979-120.678 49.987-32.008 32.005-49.989 75.415-49.989 120.678s17.981 88.673 49.989 120.681c32.005 32.005 75.415 49.987 120.678 49.987s88.673-17.981 120.678-49.987c32.008-32.008 49.989-75.418 49.989-120.681s-17.981-88.673-49.989-120.678c-32.005-32.008-75.415-49.987-120.678-49.987z" />
<glyph unicode="&#xe94d;" glyph-name="Bag" horiz-adv-x="1050" d="M1002.25 416h-96v48c0 160.876-99.456 298.94-240.102 355.998-2.13 77.556-65.836 140.002-143.898 140.002s-141.768-62.446-143.898-140.002c-140.647-57.058-240.103-195.122-240.103-355.998v-48h-96c-17.672 0-32-14.328-32-32v-208c0-77.581 55.512-142.423 128.896-156.941 6.342-46.833 46.56-83.059 95.104-83.059h576c48.543 0 88.76 36.227 95.104 83.059 73.385 14.518 128.896 79.36 128.896 156.941v208c0 17.672-14.326 32-32 32zM522.25 896c35.604 0 65.841-23.386 76.183-55.602-48.504 9.802-100.562 10.468-152.366 0 10.342 32.214 40.576 55.602 76.183 55.602zM74.25 176v176h64v-266.516c-37.25 13.207-64 48.796-64 90.516v0zM842.25 32c0-17.644-14.356-32-32-32h-576c-17.644 0-32 14.356-32 32 0 22.748 0 415.867 0 432 0 176.448 143.552 320 320 320 176.451 0 320-143.552 320-320v-432zM970.25 176c0-41.72-26.749-77.309-64-90.516v266.516h64v-176zM522.25 736c-149.983 0-272-122.017-272-272 0-17.672 14.329-32 32-32s32 14.328 32 32c0 114.693 93.307 208 208 208 114.691 0 208-93.307 208-208 0-17.672 14.326-32 32-32s32 14.328 32 32c0 149.983-122.020 272-272 272zM682.25 352h-320c-52.933 0-96-43.067-96-96v-112c0-52.933 43.067-96 96-96h320c52.933 0 96 43.067 96 96v112c0 52.933-43.067 96-96 96zM714.25 144c0-17.644-14.356-32-32-32h-320c-17.644 0-32 14.356-32 32v112c0 17.644 14.356 32 32 32h320c17.644 0 32-14.356 32-32v-112z" />
<glyph unicode="&#xe94e;" glyph-name="Board" horiz-adv-x="1050" d="M1002.24 352.005h-32v575.995c0 17.672-14.326 32-31.997 32h-831.993c-17.674 0-32-14.328-32-32v-575.995h-32c-17.674 0-32-14.328-32-32v-127.997c0-17.672 14.326-32 32-32h117.575l-52.346-183.206c-5.826-20.396 9.486-40.799 30.786-40.799 13.926 0 26.738 9.162 30.754 23.217l16.226 56.788h674.002l16.225-56.791c4.861-16.998 22.579-26.831 39.56-21.978 16.993 4.854 26.831 22.566 21.978 39.56l-52.342 183.209h117.573c17.674 0 32 14.328 32 32v127.997c0 17.672-14.326 32-32 32v0zM138.249 896.001h767.994v-543.995h-64v32c0 52.933-43.064 96-96 96h-95.997c-52.936 0-96-43.067-96-96v-32h-415.996v543.995zM778.243 352.005h-159.997v32c0 17.644 14.354 32 32 32h95.997c17.644 0 32-14.356 32-32v-32zM840.963 80.008h-637.432l22.858 80h591.716l22.858-80zM970.24 224.008c-37.204 0 209.3 0-895.991 0v63.997h895.991v-63.997zM618.248 640.003c0 66.201-65.743 112.572-127.997 90.494v85.503c0 17.672-14.326 32-32 32s-32-14.328-32-32v-239.998c0-28.529 34.627-42.642 54.636-22.618 63.363-30.382 137.362 16.049 137.362 86.618zM522.25 672.003c17.644 0 31.997-14.356 31.997-32s-14.354-32-31.997-32c-17.646 0-32 14.356-32 32s14.354 32 32 32zM323.615 726.632c-63.365 30.382-137.365-16.050-137.365-86.619 0-70.582 74.023-116.989 137.365-86.618 20.004-20.022 54.636-5.911 54.636 22.618v128.001c0 28.53-34.629 42.642-54.636 22.618zM282.25 608.013c-17.644 0-32 14.356-32 32 0 17.646 14.357 32 32 32s32-14.354 32-32c0-17.644-14.356-32-32-32zM830.131 572.114c12.498 12.498 12.495 32.758 0 45.256-12.498 12.495-32.76 12.495-45.256 0-19.978-19.976-54.625-5.965-54.625 22.628 0 28.654 34.678 42.573 54.625 22.628 12.495-12.498 32.758-12.498 45.256 0 12.495 12.498 12.498 32.758 0 45.253-59.922 59.922-163.881 17.916-163.881-67.881-0.003-85.952 104.033-127.731 163.881-67.884z" />
<glyph unicode="&#xe94f;" glyph-name="ribbon" horiz-adv-x="1050" d="M522.266 960c-194.22 0-351.916-158.037-351.916-351.916 0-193.876 157.696-352.256 351.916-352.256 193.876 0 351.913 158.039 351.913 351.916s-158.036 352.256-351.913 352.256zM707.267 657.92l-60.756-76.116 6.484-99.671c0.684-10.921-4.436-21.844-13.312-28.329-5.46-3.756-11.945-5.804-18.432-5.804-4.096 0-8.532 0.684-12.628 2.388l-86.356 36.864-86.359-36.521c-10.24-4.439-21.844-3.072-31.060 3.412s-13.996 17.068-13.312 28.332l6.828 99.668-61.1 75.776c-6.828 8.532-8.876 19.796-5.46 30.036 3.412 10.24 11.945 18.092 22.185 20.822l90.796 23.893 49.836 83.968c11.604 19.456 43.689 19.456 54.953 0l49.836-83.968 90.796-23.893c10.58-2.731 18.772-10.582 22.185-20.822 3.756-10.24 1.708-21.504-5.12-30.036zM162.13 400.55l-147.797-256.343c-6.485-11.264-5.461-25.257 2.389-35.497s21.163-14.679 33.792-11.264l188.075 50.516 49.834-187.732c3.415-12.631 13.996-21.847 26.624-23.552 1.367-0.684 3.072-0.684 4.439-0.684 11.264 0 21.844 6.144 27.648 16.044l139.604 241.664c-138.924 11.945-258.048 92.16-324.608 206.848zM1030.154 143.859l-147.796 256.34c-66.22-114.688-185.684-194.9-324.608-206.508l139.604-241.664c5.804-9.897 16.384-16.041 27.648-16.041 1.367 0 2.732 0 4.096 0.34 12.972 1.708 23.212 10.924 26.624 23.552l49.836 187.732 187.732-50.516c12.631-3.412 25.6 1.024 33.792 11.264 8.535 10.24 9.216 24.236 3.072 35.5z" />
<glyph unicode="&#xe950;" glyph-name="Smile" horiz-adv-x="1050" d="M10.25 448c0 282.624 229.376 512 512 512s512-229.376 512-512c0-282.624-229.376-512-512-512s-512 229.376-512 512zM103.093 448c0-231.424 188.417-419.156 419.158-419.156s419.156 187.732 419.156 419.156c0 231.424-188.416 419.157-419.156 419.157s-419.158-187.733-419.158-419.157zM397.317 323.092c68.951-68.948 180.908-68.948 249.856 0 18.432 17.748 47.788 17.748 66.903 0 18.432-17.748 18.432-47.104 0-65.536-52.564-52.564-122.199-79.188-191.148-79.188-69.632 0-138.58 26.624-191.148 79.188-18.432 17.748-18.432 47.104 0 65.536 17.751 18.432 47.104 18.432 65.536 0zM367.27 503.296c11.607 11.604 18.432 27.988 18.432 43.692 0 15.7-6.825 32.768-18.432 44.372-11.604 11.604-27.305 18.432-43.689 18.432s-32.087-6.828-43.692-18.432c-11.604-11.604-18.432-27.308-18.432-43.692s6.828-32.084 18.432-43.689c11.604-11.607 27.308-18.432 43.692-18.432s32.084 6.144 43.689 17.748zM677.181 590.651c11.607 11.607 27.308 18.432 43.692 18.432s32.084-6.144 43.692-18.432c11.604-11.604 18.432-27.305 18.432-43.689s-6.828-32.087-18.432-43.692c-11.607-11.604-27.308-18.432-43.692-18.432s-32.084 6.828-43.692 18.432c-11.604 11.604-18.432 27.308-18.432 43.692s6.828 32.768 18.432 43.689z" />
<glyph unicode="&#xe951;" glyph-name="scale" horiz-adv-x="1050" d="M1024.878 697.372c12.498 12.496 12.498 32.758 0 45.254l-208 208c-12.498 12.498-32.758 12.498-45.256 0l-289.372-289.371-257.373 257.371c-12.496 12.498-32.758 12.498-45.254 0l-128-128c-12.498-12.496-12.498-32.758 0-45.254l257.371-257.372-289.371-289.372c-12.498-12.498-12.498-32.76 0-45.256l208-208c12.494-12.495 32.757-12.498 45.255 0l289.372 289.375 198.612-198.615c10.547-10.545 14.774-16.223 24.968-19.003 193.741-52.838 178.455-49.129 184.417-49.129 21.094 0 36.419 20.093 30.874 40.42l-48 176c-1.464 5.373-4.306 10.271-8.246 14.208-31.9 31.9-186.273 186.276-209.372 209.372l289.375 289.372zM202.249 850.745l652.179-652.181c-34.967-19.062-63.683-47.777-82.744-82.744l-652.178 652.181 82.744 82.744zM474.25 237.256l-25.372 25.372c-12.498 12.498-32.758 12.498-45.256 0s-12.498-32.76 0-45.256l25.372-25.372-50.744-50.744-25.372 25.372c-12.498 12.498-32.758 12.498-45.256 0s-12.498-32.76 0-45.256l25.372-25.372-82.745-82.744-162.744 162.744 266.745 266.747 162.744-162.747-42.744-42.744zM822.175 73.554c14.492 33.408 41.114 60.029 74.522 74.522l27.948-102.467-102.469 27.945zM527.503 616l266.747 266.745 162.744-162.744-82.744-82.745-25.372 25.37c-12.498 12.5-32.758 12.5-45.256 0-12.498-12.495-12.498-32.758 0-45.253l25.372-25.372-50.744-50.744-25.372 25.372c-12.498 12.498-32.758 12.498-45.256 0s-12.498-32.76 0-45.256l25.372-25.372-42.744-42.744-162.747 162.744z" />
<glyph unicode="&#xe952;" glyph-name="book-3-line" horiz-adv-x="1050" d="M906.25 789.342h-597.332c-22.633 0-44.337-8.99-60.341-24.994-16.003-16.003-24.994-37.708-24.994-60.34s8.99-44.337 24.994-60.34c16.004-16.003 37.708-24.993 60.341-24.993h597.332v-554.668c0-11.315-4.495-22.167-12.498-30.17-8-8-18.852-12.495-30.17-12.495h-554.665c-45.266 0-88.675 17.979-120.681 49.987-32.006 32.005-49.987 75.415-49.987 120.678v512.001c0 45.264 17.981 88.673 49.987 120.679s75.415 49.987 120.681 49.987h554.665c11.318 0 22.17-4.495 30.17-12.497 8.003-8.002 12.498-18.854 12.498-30.17v-42.667zM223.583 192.008c0-22.63 8.99-44.337 24.994-60.339 16.004-16.003 37.708-24.993 60.341-24.993h512v426.668h-512c-29.96-0.049-59.4 7.826-85.335 22.825v-364.16zM863.583 661.343h-554.665c-11.318 0-22.17 4.495-30.172 12.495-8 8.003-12.495 18.854-12.495 30.17s4.495 22.168 12.495 30.17c8.003 8.002 18.854 12.497 30.172 12.497h554.665v-85.332z" />
<glyph unicode="&#xe953;" glyph-name="science" horiz-adv-x="947" d="M471.043 379.743c38.006 0 68.815 30.564 68.815 68.265 0 37.704-30.81 68.268-68.815 68.268-38.008 0-68.818-30.564-68.818-68.268 0-37.701 30.81-68.265 68.818-68.265zM917.453 705.266c-40.302 68.83-147.443 74.396-272.264 42.679-35.372 123.15-94.044 212.055-174.139 212.055-80.097 0-138.77-88.905-174.141-211.885-124.821 31.716-231.789 25.98-272.263-42.682-40.474-69.166 8.163-164.987 98.805-257.436-90.471-92.613-139.277-188.265-98.805-257.431 40.303-68.828 147.439-74.396 272.263-42.68 35.203-122.982 93.873-211.886 174.141-211.886 80.266 0 138.767 88.904 174.139 211.886 124.992-31.718 231.962-25.981 272.264 42.68 40.474 69.166-8.164 164.987-98.806 257.436 90.642 92.444 139.279 188.099 98.806 257.264zM867.794 676.756c21.77-37.112-11.392-109.317-90.13-189.783-30.441 27.159-64.113 53.983-99.484 79.117-4.252 44.032-10.545 86.712-19.387 127.199 108.669 27.329 187.233 20.244 209.001-16.532zM549.107 314.563c-26.358-15.352-52.718-29.015-78.057-41.5-25.682 12.485-51.699 26.148-78.060 41.5-26.189 15.181-51.016 30.705-74.145 46.392-2.040 27.835-3.062 56.852-3.062 86.879 0 30.029 1.021 59.044 3.062 86.881 23.299 15.688 47.956 31.209 74.145 46.392 26.36 15.352 52.718 29.015 78.060 41.5 25.679-12.485 51.699-26.148 78.057-41.5 26.189-15.183 51.018-30.705 74.145-46.392 2.040-27.837 3.062-56.852 3.062-86.881 0-30.026-1.021-59.044-3.062-86.879-23.127-15.69-47.959-31.212-74.145-46.392zM616.108 288.412c-3.231-24.63-7.311-47.913-12.073-70.008-21.427 7.084-43.704 15.35-66.493 24.627 13.604 7.255 27.039 14.676 40.474 22.438 12.756 7.252 25.51 15.014 38.093 22.943zM404.557 243.034c-22.958-9.446-45.066-17.544-66.493-24.627-4.59 21.929-8.673 45.379-12.076 70.008 12.585-7.928 25.339-15.519 38.262-22.943 13.097-7.762 26.703-15.186 40.307-22.438zM258.988 403.633c-19.046 14.676-37.074 29.693-53.399 44.198 16.496 14.676 34.353 29.522 53.399 44.198-0.681-14.676-0.85-29.522-0.85-44.198s0.338-29.522 0.85-44.198zM325.99 607.252c3.231 24.627 7.314 47.91 12.076 70.008 21.425-7.086 43.704-15.352 66.493-24.63-13.606-7.255-27.041-14.676-40.476-22.436-12.754-7.255-25.51-15.014-38.093-22.943zM537.544 652.631c22.956 9.446 45.064 17.544 66.493 24.63 4.59-21.932 8.673-45.381 12.073-70.008-12.585 7.926-25.336 15.519-38.262 22.943-13.097 7.759-26.703 15.181-40.305 22.436zM683.113 492.032c19.044-14.676 37.071-29.691 53.396-44.198-16.497-14.676-34.353-29.522-53.396-44.198 0.681 14.676 0.847 29.522 0.847 44.198-0.166 14.676-0.338 29.519-0.847 44.198zM471.050 903.148c43.026 0 88.768-64.106 119.549-170.722-39.283-12.651-79.419-28.68-119.549-46.728-39.964 18.386-80.269 34.077-119.552 46.728 30.781 106.616 76.526 170.722 119.552 170.722zM74.303 676.756c21.597 36.946 100.334 44.031 209.004 16.701-8.673-40.486-15.306-83.505-19.389-127.196-35.541-25.137-69.041-51.789-99.483-79.119-78.568 80.297-111.9 152.499-90.132 189.614zM74.303 218.908c-21.768 37.115 11.393 109.148 90.132 189.786 30.441-27.159 64.113-53.983 99.483-79.119 4.252-44.029 10.545-86.71 19.389-127.196-108.67-27.331-187.236-20.244-209.004 16.53zM471.050-7.483c-43.026 0-88.771 64.108-119.552 170.721 39.283 12.652 79.419 28.68 119.552 46.73 39.964-18.386 80.266-34.079 119.549-46.73-30.781-106.616-76.524-170.721-119.549-170.721zM867.794 218.908c-21.596-36.946-100.332-44.029-209.001-16.701 8.673 40.489 15.304 83.507 19.387 127.199 35.54 25.134 69.043 51.789 99.484 79.119 78.566-80.3 111.9-152.502 90.13-189.617z" />
<glyph unicode="&#xe954;" glyph-name="calculator" horiz-adv-x="1050" d="M853.932 718.334h-61.565v61.216c0 15.684-12.649 28.5-28.503 28.5-15.688 0-28.506-12.647-28.506-28.5v-61.555h-61.228c-15.685 0-28.506-12.647-28.506-28.5 0-15.683 12.649-28.5 28.506-28.5h61.565v-61.217c0-15.685 12.649-28.5 28.503-28.5 15.688 0 28.506 12.646 28.506 28.5v61.555h61.565c15.685 0 28.503 12.646 28.503 28.498-0.335 15.518-12.984 28.504-28.841 28.504zM182.297 591.355c11.133-11.131 29.011-11.131 40.314 0l58.022 58.012 58.022-58.012c11.133-11.131 29.010-11.131 40.312 0 11.133 11.133 11.133 29.007 0 40.307l-58.191 58.012 58.191 58.183c11.133 11.131 11.133 29.006 0 40.307-11.133 11.298-29.010 11.131-40.312 0l-58.191-58.182-58.025 58.012c-11.133 11.131-29.011 11.131-40.314 0-11.133-11.131-11.133-29.006 0-40.307l58.022-58.013-58.022-58.012c-11.13-11.131-11.13-29.007 0.172-40.307zM674.304 177.674h179.802c15.688 0 28.506 12.649 28.506 28.5 0 15.683-12.649 28.5-28.506 28.5h-179.802c-15.685 0-28.503-12.646-28.503-28.5 0-15.514 12.818-28.5 28.503-28.5zM190.705 177.674h179.802c15.688 0 28.506 12.649 28.506 28.5 0 15.683-12.649 28.5-28.506 28.5h-179.802c-15.686 0-28.505-12.646-28.505-28.5 0-15.514 12.649-28.5 28.505-28.5zM272.376 261.151h16.358c15.683 0 28.5 12.646 28.5 28.5 0 15.852-12.649 28.498-28.5 28.498h-16.358c-15.685 0-28.501-12.646-28.501-28.498s12.816-28.5 28.501-28.5zM288.735 151.199h-16.358c-15.685 0-28.501-12.646-28.501-28.498 0-15.685 12.647-28.5 28.501-28.5h16.358c15.683 0 28.5 12.646 28.5 28.5-0.172 15.849-12.818 28.498-28.5 28.498zM920.735 960h-796.8c-62.747 0-113.685-50.93-113.685-113.666v-796.501c0-62.904 50.938-113.833 113.685-113.833h796.631c62.743 0 113.684 50.929 113.684 113.667v796.667c0.169 62.737-50.772 113.666-113.516 113.666zM493.829-7.168h-369.894c-31.372 0-56.842 25.633-56.842 56.835v369.836h426.737v-426.67zM493.829 476.5h-426.737v369.833c0 31.367 25.637 56.833 56.842 56.833h369.725v-426.669h0.169v0.003zM977.577 49.664c0-31.368-25.638-56.835-56.842-56.835h-369.894v426.67h426.737v-369.836zM977.577 476.5h-426.737v426.666h369.725c31.37 0 56.842-25.633 56.842-56.833v-369.836h0.169v0.003z" />
<glyph unicode="&#xe955;" glyph-name="compass" horiz-adv-x="819" d="M802.084 428.462c5.414 14.674-2.030 31.037-16.742 36.436-14.715 5.399-31.122-2.025-36.536-16.699-22.664-60.728-58.688-112.348-103.511-153.17l-93.025 190.113c15.391 28.508 24.018 60.895 24.018 95.309 0 80.128-46.851 149.289-114.844 182.016v109.478c0.003 48.582-39.575 88.054-88.284 88.054-48.712 0-88.289-39.472-88.289-88.054v-109.48c-67.655-32.894-114.843-102.057-114.843-182.016 0-34.414 8.626-66.97 24.018-95.309l-174.888-357.281c-10.316-21.256-11.671-45.21-4.061-67.308l29.261-85.020c21.48-54.822 88.288-48.246 107.74-6.579l90.825 185.559c33.489-10.46 67.654-16.701 101.482-19.231v-47.57c0-15.688 12.682-28.508 28.582-28.508 15.729 0 28.585 12.649 28.585 28.508v47.232c35.011 1.856 69.345 7.928 102.495 17.544l89.812-183.534c21.65-45.545 88.794-44.365 107.74 6.579l29.261 85.020c7.611 22.098 6.257 46.221-4.063 67.308l-55.813 114.202c56.998 48.412 103.173 111.334 131.080 186.401zM599.291 258.929c-20.805-14.17-43.131-26.145-66.299-35.932l-83.215 170.207c23.846 9.615 45.327 23.954 63.764 41.329l85.75-175.603zM341.696 872.113c0 17.376 14.205 31.208 31.291 31.208 17.423 0 31.291-14.169 31.291-31.208v-91.598c-10.314 1.686-20.634 2.698-31.291 2.698-10.655 0-20.972-1.012-31.291-2.698v91.598zM372.987 726.367c80.678 0 146.135-65.283 146.135-145.749s-65.454-145.748-146.135-145.748c-80.678 0-146.134 65.283-146.134 145.748s65.458 145.749 146.134 145.749zM99.496-9.454l-30.444 88.561c-2.705 7.928-2.198 16.53 1.353 23.785l162.201 331.474c18.435-17.544 39.747-31.716 63.765-41.329l-196.876-402.491zM401.572 191.79v45.21c0 15.688-12.685 28.508-28.585 28.508-15.729 0-28.582-12.652-28.582-28.508v-44.536c-25.541 2.194-50.911 6.579-76.283 13.834l84.739 172.567c23.173-3.374 33.825-0.676 40.425 0l85.581-174.761c-25.37-6.746-51.246-10.793-77.294-12.314zM675.402 102.892c3.72-7.421 4.229-16.195 1.352-23.785l-30.275-88.394-88.796 181.005c23.004 10.122 45.327 21.76 66.301 35.425l51.418-104.251zM371.812 672.399c-48.709 0-88.287-39.473-88.287-88.054s39.578-88.054 88.287-88.054c48.712 0 88.289 39.473 88.289 88.054s-39.578 88.054-88.289 88.054zM371.812 553.137c-17.421 0-31.291 14.17-31.291 31.209 0 17.377 14.208 31.209 31.291 31.209 17.423 0 31.291-14.17 31.291-31.209-0.003-17.375-13.87-31.209-31.291-31.209z" />
<glyph unicode="&#xe956;" glyph-name="pen-tool" horiz-adv-x="1050" d="M998.134 598.858l-325.829 325.86c-45.704 45.082-127.16 48.963-175.058 0-48.236-48.289-48.236-126.968 0-175.257l17.539-17.559-334.935-100.968c-30.356-9.119-53.292-34.107-59.702-65.341l-107.936-525.77c-12.987-58.25 40.475-114.307 102.032-102.149l525.172 108.227c31.032 6.418 55.992 29.21 65.267 59.771l101.020 335.654 17.539-17.559c58.522-60.613 143.69-37.315 175.058 0 51.272 46.433 44.526 124.605-0.166 175.091zM650.043 121.879c-3.205-10.296-11.638-18.235-22.095-20.429l-518.425-106.368 245.721 246.001c15.347-8.612 33.057-13.676 51.945-13.676 58.519 0 106.081 47.444 106.081 106.202s-47.222 106.033-105.912 106.033c-58.691 0-106.081-47.444-106.081-106.202 0-18.908 5.059-36.808 13.66-52.004l-245.722-246.336 106.587 518.848c2.192 10.637 9.95 19.249 20.406 22.118l104.227 31.404 66.278-66.353c5.565-5.571 12.818-8.274 20.239-8.274 7.419 0 14.505 2.87 20.239 8.274 11.131 11.144 11.131 29.038 0 40.353l-44.692 44.741 57.679 17.393 112.658-112.786c5.563-5.571 12.815-8.274 20.237-8.274s14.505 2.87 20.239 8.274c11.133 11.144 11.133 29.041 0 40.353l-91.069 91.174 79.096 23.805 198.669-199.063-109.965-365.21zM357.942 333.271c0 27.182 21.924 49.3 49.247 49.3 27.32 0 49.247-21.949 49.247-49.3 0-27.354-21.926-49.303-49.247-49.303-27.323 0-49.247 22.118-49.247 49.303zM957.827 463.951c-26.644-23.805-57.001-28.534-94.612 0l-325.494 325.865c-25.802 30.73-26.478 62.134 0 94.721 36.091 29.716 72.351 21.443 94.615 0l325.491-325.863c24.96-29.212 27.154-60.616 0-94.723z" />
<glyph unicode="&#xe957;" glyph-name="lab" horiz-adv-x="1050" d="M1031.27-22.684l-58.191 113.833c-4.892 9.444-14.674 15.514-25.469 15.514h-340.040v426.67h87.035v-209.285c0-78.42 63.926-142.336 142.359-142.336s142.359 63.916 142.359 142.336v482.319c14.843 1.012 26.65 13.153 26.65 28.164 0 15.683-12.649 28.5-28.503 28.5h-281.011c-15.688 0-28.506-12.647-28.506-28.5 0-15.177 11.976-27.488 26.65-28.164v-102.365h-87.035v170.666c0.003 47.050-38.287 85.333-85.348 85.333s-85.348-38.283-85.348-85.333v-170.666h-87.035v102.365c14.843 1.012 26.65 13.153 26.65 28.164 0 15.683-12.649 28.5-28.503 28.5h-281.005c-15.686 0-28.505-12.647-28.505-28.5 0-15.177 11.976-27.488 26.65-28.164v-482.319c0-78.42 63.926-142.336 142.359-142.336s142.359 63.916 142.359 142.336v209.285h87.035v-426.67h-340.214c-10.627 0-20.578-6.070-25.47-15.514l-58.022-113.833c-8.602-17.37 2.361-40.136 25.47-41.316h967.326c22.267 0 34.243 22.766 25.303 41.316zM751.613 806.366h170.696v-352.634h-170.696v352.634zM751.613 396.733h170.696v-72.855c0-47.050-38.29-85.332-85.348-85.332s-85.348 38.282-85.348 85.332v72.855zM292.828 324.047c0-47.050-38.289-85.335-85.348-85.335s-85.347 38.285-85.347 85.335v72.852h170.695v-72.852zM292.828 453.903h-170.695v142.333h28.505c15.686 0 28.505 12.649 28.505 28.5 0 15.685-12.649 28.5-28.505 28.5h-28.505v56.833h85.347c15.686 0 28.505 12.647 28.505 28.5 0 15.684-12.649 28.5-28.505 28.5h-85.347v39.631h170.695v-352.799zM493.714 874.667c0 15.683 12.649 28.5 28.506 28.5 15.685 0 28.506-12.647 28.506-28.5v-170.666h-56.842l-0.169 170.666zM349.839 590.333v56.835h344.932v-56.835h-344.932zM550.728 533.332v-426.499h-56.842v426.499h56.842zM85.196-7.168l29.011 56.835h816.369l29.010-56.835h-874.39z" />
</font>
</defs>
</svg>
